<?xml version="1.0" standalone="no"?>
<!DOCTYPE svg PUBLIC "-//W3C//DTD SVG 1.1//EN" "http://www.w3.org/Graphics/SVG/1.1/DTD/svg11.dtd" >
<svg xmlns="http://www.w3.org/2000/svg">
<metadata>Generated by IcoMoon</metadata>
<defs>
<font id="icomoon" horiz-adv-x="1024">
<font-face units-per-em="1024" ascent="960" descent="-64" />
<missing-glyph horiz-adv-x="1024" />
<glyph unicode="&#x20;" horiz-adv-x="512" d="" />
<glyph unicode="&#xe000;" glyph-name="error" d="M554 384.667v256h-84v-256h84zM554 212.667v86h-84v-86h84zM512 852.667c236 0 426-190 426-426s-190-426-426-426-426 190-426 426 190 426 426 426z" />
<glyph unicode="&#xe001;" glyph-name="error_outline" d="M512 84.667c188 0 342 154 342 342s-154 342-342 342-342-154-342-342 154-342 342-342zM512 852.667c236 0 426-190 426-426s-190-426-426-426-426 190-426 426 190 426 426 426zM470 640.667h84v-256h-84v256zM470 298.667h84v-86h-84v86z" />
<glyph unicode="&#xe002;" glyph-name="warning1" d="M554 340.667v172h-84v-172h84zM554 170.667v86h-84v-86h84zM42 42.667l470 810 470-810h-940z" />
<glyph unicode="&#xe019;" glyph-name="album" d="M512 468.667c24 0 42-18 42-42s-18-42-42-42-42 18-42 42 18 42 42 42zM512 234.667c106 0 192 86 192 192s-86 192-192 192-192-86-192-192 86-192 192-192zM512 852.667c236 0 426-190 426-426s-190-426-426-426-426 190-426 426 190 426 426 426z" />
<glyph unicode="&#xe01b;" glyph-name="av_timer" d="M256 426.667c0 24 18 42 42 42s44-18 44-42-20-42-44-42-42 18-42 42zM768 426.667c0-24-18-42-42-42s-44 18-44 42 20 42 44 42 42-18 42-42zM470 810.667h42c212 0 384-172 384-384s-172-384-384-384-384 172-384 384c0 126 60 236 154 306v2l290-290-60-60-232 230c-42-52-66-116-66-188 0-166 132-298 298-298s298 132 298 298c0 150-112 276-256 296v-82h-84v170zM470 212.667c0 24 18 44 42 44s42-20 42-44-18-42-42-42-42 18-42 42z" />
<glyph unicode="&#xe01c;" glyph-name="closed_caption" d="M768 468.667v44c0 24-18 42-42 42h-128c-24 0-44-18-44-42v-172c0-24 20-42 44-42h128c24 0 42 18 42 42v44h-64v-22h-86v128h86v-22h64zM470 468.667v44c0 24-20 42-44 42h-128c-24 0-42-18-42-42v-172c0-24 18-42 42-42h128c24 0 44 18 44 42v44h-64v-22h-86v128h86v-22h64zM810 768.667c46 0 86-40 86-86v-512c0-46-40-86-86-86h-596c-48 0-86 40-86 86v512c0 46 38 86 86 86h596z" />
<glyph unicode="&#xe01e;" glyph-name="explicit" d="M640 554.667v86h-256v-428h256v86h-170v86h170v84h-170v86h170zM810 810.667c46 0 86-40 86-86v-596c0-46-40-86-86-86h-596c-46 0-86 40-86 86v596c0 46 40 86 86 86h596z" />
<glyph unicode="&#xe01f;" glyph-name="fast_forward" d="M554 682.667l364-256-364-256v512zM170 170.667v512l364-256z" />
<glyph unicode="&#xe020;" glyph-name="fast_rewind" d="M490 426.667l364 256v-512zM470 170.667l-364 256 364 256v-512z" />
<glyph unicode="&#xe021;" glyph-name="games" d="M704 554.667h234v-256h-234l-128 128zM384 234.667l128 128 128-128v-234h-256v234zM320 554.667l128-128-128-128h-234v256h234zM640 618.667l-128-128-128 128v234h256v-234z" />
<glyph unicode="&#xe024;" glyph-name="high_quality" d="M618 362.667v128h86v-128h-86zM768 340.667v172c0 24-18 42-42 42h-128c-24 0-44-18-44-42v-172c0-24 20-42 44-42h32v-64h64v64h32c24 0 42 18 42 42zM470 298.667v256h-64v-106h-86v106h-64v-256h64v86h86v-86h64zM810 768.667c46 0 86-40 86-86v-512c0-46-40-86-86-86h-596c-48 0-86 40-86 86v512c0 46 38 86 86 86h596z" />
<glyph unicode="&#xe029;" glyph-name="mic" d="M738 468.667h72c0-146-116-266-256-286v-140h-84v140c-140 20-256 140-256 286h72c0-128 108-216 226-216s226 88 226 216zM512 340.667c-70 0-128 58-128 128v256c0 70 58 128 128 128s128-58 128-128v-256c0-70-58-128-128-128z" />
<glyph unicode="&#xe02a;" glyph-name="mic_none" d="M738 468.667h72c0-146-116-266-256-286v-140h-84v140c-140 20-256 140-256 286h72c0-128 108-216 226-216s226 88 226 216zM460 728.667v-264c0-28 24-50 52-50s50 22 50 50l2 264c0 28-24 52-52 52s-52-24-52-52zM512 340.667c-70 0-128 58-128 128v256c0 70 58 128 128 128s128-58 128-128v-256c0-70-58-128-128-128z" />
<glyph unicode="&#xe02b;" glyph-name="mic_off" d="M182 810.667l714-714-54-54-178 178c-32-20-72-32-110-38v-140h-84v140c-140 20-256 140-256 286h72c0-128 108-216 226-216 34 0 68 8 98 22l-70 70c-8-2-18-4-28-4-70 0-128 58-128 128v32l-256 256zM640 462.667l-256 254v8c0 70 58 128 128 128s128-58 128-128v-262zM810 468.667c0-50-14-98-38-140l-52 54c12 26 18 54 18 86h72z" />
<glyph unicode="&#xe031;" glyph-name="new_releases" d="M554 384.667v256h-84v-256h84zM554 212.667v86h-84v-86h84zM982 426.667l-104-118 14-158-154-34-80-136-146 62-146-62-80 134-154 36 14 158-104 118 104 120-14 156 154 34 80 136 146-62 146 62 80-136 154-34-14-158z" />
<glyph unicode="&#xe033;" glyph-name="not_interested" d="M782 216.667c46 58 72 132 72 210 0 188-154 342-342 342-78 0-152-26-210-72zM512 84.667c78 0 152 26 210 72l-480 480c-46-58-72-132-72-210 0-188 154-342 342-342zM512 852.667c236 0 426-190 426-426s-190-426-426-426-426 190-426 426 190 426 426 426z" />
<glyph unicode="&#xe034;" glyph-name="pause" d="M598 724.667h170v-596h-170v596zM256 128.667v596h170v-596h-170z" />
<glyph unicode="&#xe035;" glyph-name="pause_circle_filled" d="M640 256.667v340h-86v-340h86zM470 256.667v340h-86v-340h86zM512 852.667c236 0 426-190 426-426s-190-426-426-426-426 190-426 426 190 426 426 426z" />
<glyph unicode="&#xe036;" glyph-name="pause_circle_outline" d="M554 256.667v340h86v-340h-86zM512 84.667c188 0 342 154 342 342s-154 342-342 342-342-154-342-342 154-342 342-342zM512 852.667c236 0 426-190 426-426s-190-426-426-426-426 190-426 426 190 426 426 426zM384 256.667v340h86v-340h-86z" />
<glyph unicode="&#xe037;" glyph-name="play_arrow" d="M342 724.667l468-298-468-298v596z" />
<glyph unicode="&#xe038;" glyph-name="play_circle_filled" d="M426 234.667l256 192-256 192v-384zM512 852.667c236 0 426-190 426-426s-190-426-426-426-426 190-426 426 190 426 426 426z" />
<glyph unicode="&#xe039;" glyph-name="play_circle_outline" d="M512 84.667c188 0 342 154 342 342s-154 342-342 342-342-154-342-342 154-342 342-342zM512 852.667c236 0 426-190 426-426s-190-426-426-426-426 190-426 426 190 426 426 426zM426 234.667v384l256-192z" />
<glyph unicode="&#xe03b;" glyph-name="playlist_add" d="M86 256.667v84h340v-84h-340zM768 340.667h170v-84h-170v-172h-86v172h-170v84h170v172h86v-172zM598 682.667v-86h-512v86h512zM598 512.667v-86h-512v86h512z" />
<glyph unicode="&#xe03d;" glyph-name="queue_music" d="M726 682.667h212v-86h-128v-384c0-70-58-128-128-128s-128 58-128 128 58 128 128 128c14 0 30-4 44-8v350zM128 256.667v84h342v-84h-342zM640 512.667v-86h-512v86h512zM640 682.667v-86h-512v86h512z" />
<glyph unicode="&#xe03f;" glyph-name="recent_actors" d="M534 212.667v32c0 64-128 96-192 96s-192-32-192-96v-32h384zM342 608.667c-52 0-96-44-96-96s44-96 96-96 96 44 96 96-44 96-96 96zM598 724.667c24 0 42-18 42-42v-512c0-24-18-42-42-42h-512c-24 0-44 18-44 42v512c0 24 20 42 44 42h512zM726 128.667v596h84v-596h-84zM896 724.667h86v-596h-86v596z" />
<glyph unicode="&#xe040;" glyph-name="repeat" d="M726 212.667v172h84v-256h-512v-128l-170 170 170 170v-128h428zM298 640.667v-172h-84v256h512v128l170-170-170-170v128h-428z" />
<glyph unicode="&#xe041;" glyph-name="repeat_one" d="M554 298.667h-64v170h-64v44l86 42h42v-256zM726 212.667v172h84v-256h-512v-128l-170 170 170 170v-128h428zM298 640.667v-172h-84v256h512v128l170-170-170-170v128h-428z" />
<glyph unicode="&#xe042;" glyph-name="replay" d="M512 724.667c188 0 342-152 342-340s-154-342-342-342-342 154-342 342h86c0-142 114-256 256-256s256 114 256 256-114 256-256 256v-172l-214 214 214 214v-172z" />
<glyph unicode="&#xe043;" glyph-name="shuffle" d="M632 366.667l134-134 88 88v-236h-236l88 88-134 134zM618 768.667h236v-236l-88 88-536-536-60 60 536 536zM452 546.667l-60-60-222 222 60 60z" />
<glyph unicode="&#xe044;" glyph-name="skip_next" d="M682 682.667h86v-512h-86v512zM256 170.667v512l362-256z" />
<glyph unicode="&#xe045;" glyph-name="skip_previous" d="M406 426.667l362 256v-512zM256 682.667h86v-512h-86v512z" />
<glyph unicode="&#xe047;" glyph-name="stop" d="M256 682.667h512v-512h-512v512z" />
<glyph unicode="&#xe04b;" glyph-name="videocam" d="M726 490.667l170 170v-468l-170 170v-150c0-24-20-42-44-42h-512c-24 0-42 18-42 42v428c0 24 18 42 42 42h512c24 0 44-18 44-42v-150z" />
<glyph unicode="&#xe04d;" glyph-name="volume_down" d="M214 554.667h170l214 214v-684l-214 214h-170v256zM790 426.667c0-76-44-140-108-172v344c64-32 108-96 108-172z" />
<glyph unicode="&#xe04e;" glyph-name="volume_mute" d="M298 554.667h172l212 214v-684l-212 214h-172v256z" />
<glyph unicode="&#xe04f;" glyph-name="volume_off" d="M512 768.667v-180l-90 90zM182 810.667l714-714-54-54-88 88c-46-36-98-64-156-78v88c36 10 68 28 96 50l-182 182v-288l-214 214h-170v256h202l-202 202zM810 426.667c0 136-88 250-212 286v88c172-38 298-192 298-374 0-64-16-126-44-178l-64 66c14 34 22 72 22 112zM704 426.667c0-10 0-18-2-26l-104 104v94c64-32 106-96 106-172z" />
<glyph unicode="&#xe050;" glyph-name="volume_up" d="M598 800.667c172-38 298-192 298-374s-126-336-298-374v88c124 36 212 150 212 286s-88 250-212 286v88zM704 426.667c0-76-42-140-106-172v344c64-32 106-96 106-172zM128 554.667h170l214 214v-684l-214 214h-170v256z" />
<glyph unicode="&#xe053;" glyph-name="sort_by_alpha" d="M672 250.667h260v-68h-364v54l252 366h-250v68h354v-54zM212 356.667h166l-84 222zM260 670.667h70l192-488h-78l-40 104h-218l-40-104h-78zM438 112.667h198l-100-100zM638 740.667h-202l100 100z" />
<glyph unicode="&#xe05f;" glyph-name="playlist_play" d="M726 384.667l212-128-212-128v256zM86 298.667v86h554v-86h-554zM810 724.667v-84h-724v84h724zM810 554.667v-86h-724v86h724z" />
<glyph unicode="&#xe061;" glyph-name="fiber_manual_record" d="M170 426.667c0 188 154 342 342 342s342-154 342-342-154-342-342-342-342 154-342 342z" />
<glyph unicode="&#xe062;" glyph-name="fiber_smart_record" d="M726 756.667c148-38 256-170 256-330s-108-292-256-330v88c100 34 170 130 170 242s-70 208-170 242v88zM42 426.667c0 188 154 342 342 342s342-154 342-342-154-342-342-342-342 154-342 342z" />
<glyph unicode="&#xe065;" glyph-name="playlist_add_check" d="M918 448.667l64-64-298-300-194 192 64 64 130-128zM86 256.667v84h340v-84h-340zM598 682.667v-86h-512v86h512zM598 512.667v-86h-512v86h512z" />
<glyph unicode="&#xe068;" glyph-name="slow_motion_video" d="M938 426.667c0-220-168-402-382-424v86c168 22 298 166 298 338s-130 316-298 338v86c214-22 382-204 382-424zM242 96.667l60 60c48-36 106-60 168-68v-86c-86 8-164 42-228 94zM174 384.667c8-62 32-120 68-166l-60-62c-52 64-86 142-94 228h86zM242 636.667c-36-48-60-106-68-168h-86c8 86 42 164 94 228zM470 764.667c-62-8-120-32-168-68l-60 60c64 52 142 86 228 94v-86zM556 520.667l126-94c-85.639-63.694-170.958-127.709-256-192z" />
<glyph unicode="&#xe06f;" glyph-name="note" d="M640 704.667v-236h234zM938 512.667v-342c0-46-38-84-84-84l-684-2c-46 0-84 40-84 86v512c0 46 38 86 84 86h512z" />
<glyph unicode="&#xe070;" glyph-name="video_call" d="M598 384.667v84h-128v128h-86v-128h-128v-84h128v-128h86v128h128zM726 490.667l170 170v-468l-170 170v-150c0-24-20-42-44-42h-512c-24 0-42 18-42 42v428c0 24 18 42 42 42h512c24 0 44-18 44-42v-150z" />
<glyph unicode="&#xe0b1;" glyph-name="call_end" d="M512 554.667c-68 0-134-10-196-30v-132c0-16-10-34-24-40-42-20-80-46-114-78-8-8-18-12-30-12s-22 4-30 12l-106 106c-8 8-12 18-12 30s4 22 12 30c130 124 306 200 500 200s370-76 500-200c8-8 12-18 12-30s-4-22-12-30l-106-106c-8-8-18-12-30-12s-22 4-30 12c-34 32-72 58-114 78-14 6-24 20-24 38v132c-62 20-128 32-196 32z" />
<glyph unicode="&#xe0b2;" glyph-name="call_made" d="M384 724.667h426v-426h-84v282l-496-496-60 60 496 496h-282v84z" />
<glyph unicode="&#xe0b4;" glyph-name="call_missed" d="M836 640.667l60-60-384-384-298 298v-196h-86v342h342v-86h-196l238-238z" />
<glyph unicode="&#xe0b5;" glyph-name="call_received" d="M854 708.667l-496-496h282v-84h-426v426h84v-282l496 496z" />
<glyph unicode="&#xe0b6;" glyph-name="call_split" d="M426 768.667l-98-98 226-226v-360h-84v324l-202 202-98-98v256h256zM598 768.667h256v-256l-98 98-124-124-60 60 124 124z" />
<glyph unicode="&#xe0b8;" glyph-name="clear_all" d="M298 640.667h598v-86h-598v86zM128 212.667v86h598v-86h-598zM214 384.667v84h596v-84h-596z" />
<glyph unicode="&#xe0b9;" glyph-name="comment" d="M768 596.667v86h-512v-86h512zM768 468.667v86h-512v-86h512zM768 340.667v86h-512v-86h512zM938 768.667v-768l-170 170h-598c-46 0-84 40-84 86v512c0 46 38 84 84 84h684c46 0 84-38 84-84z" />
<glyph unicode="&#xe0bb;" glyph-name="dialer_sip" d="M854 276.667c24 0 42-18 42-42v-150c0-24-18-42-42-42-400 0-726 326-726 726 0 24 18 42 42 42h150c24 0 42-18 42-42 0-54 8-104 24-152 4-14 2-32-10-44l-94-94c62-122 162-220 282-282l94 94c12 12 30 14 44 10 48-16 98-24 152-24zM854 724.667v44h-44v-44h44zM768 810.667h128v-128h-86v-86h-42v214zM640 724.667v-128h-128v44h86v42h-86v128h128v-42h-86v-44h86zM726 810.667v-214h-44v214h44z" />
<glyph unicode="&#xe0c3;" glyph-name="import_export" d="M682 212.667h128l-170-170-170 170h128v300h84v-300zM384 810.667l170-170h-128v-300h-84v300h-128z" />
<glyph unicode="&#xe0c4;" glyph-name="invert_colors_off" d="M512 720.667l-98-96-60 60 158 158 242-242c104-104 126-258 68-384l-310 308v196zM512 102.667v206l-204 204c-34-44-52-98-52-154 0-137.583 118.4-256 256-256zM882 48.667l14-16-54-54-116 116c-62-50-138-76-214-76-88 0-176 34-242 100-124 126-132 322-24 456l-118 118 54 54c232.99-232.99 464.706-467.32 700-698z" />
<glyph unicode="&#xe0c9;" glyph-name="message" d="M768 596.667v86h-512v-86h512zM768 468.667v86h-512v-86h512zM768 340.667v86h-512v-86h512zM854 852.667c46 0 84-38 84-84v-512c0-46-38-86-84-86h-598l-170-170v768c0 46 38 84 84 84h684z" />
<glyph unicode="&#xe0ca;" glyph-name="chat_bubble" d="M854 852.667c46 0 84-38 84-84v-512c0-46-38-86-84-86h-598l-170-170v768c0 46 38 84 84 84h684z" />
<glyph unicode="&#xe0cb;" glyph-name="chat_bubble_outline" d="M854 256.667v512h-684v-598l86 86h598zM854 852.667c46 0 84-38 84-84v-512c0-46-38-86-84-86h-598l-170-170v768c0 46 38 84 84 84h684z" />
<glyph unicode="&#xe0cd;" glyph-name="phone" d="M282 478.667c62-120 162-220 282-282l94 94c12 12 30 16 44 10 48-16 100-24 152-24 24 0 42-18 42-42v-150c0-24-18-42-42-42-400 0-726 326-726 726 0 24 18 42 42 42h150c24 0 42-18 42-42 0-54 8-104 24-152 4-14 2-32-10-44z" />
<glyph unicode="&#xe0ce;" glyph-name="portable_wifi_off" d="M140 832.667l42-44 714-714-54-54-320 322h-2l-8-2c-46 0-86 40-86 86l2 8-68 68c-12-24-18-48-18-76 0-64 34-118 84-148l-42-74c-76 44-128 128-128 222 0 52 14 98 40 138l-60 62c-40-56-66-124-66-200 0-126 68-236 170-296l-42-74c-128 74-212 212-212 370 0 98 32 190 88 262l-88 90zM512 768.667c-58 0-112-14-160-40l-62 62c64 40 140 62 222 62 236 0 426-190 426-426 0-82-22-158-62-222l-64 62c26 48 42 102 42 160 0 188-154 342-342 342zM750 330.667l-70 70c2 8 2 18 2 26 0 94-76 170-170 170-8 0-18 0-26-2l-70 70c30 12 62 18 96 18 142 0 256-114 256-256 0-34-6-66-18-96z" />
<glyph unicode="&#xe0d0;" glyph-name="contact_mail" d="M938 426.667v256h-340v-256h340zM598 170.667v42c0 86-170 132-256 132s-256-46-256-132v-42h512zM342 682.667c-70 0-128-58-128-128s58-128 128-128 128 58 128 128-58 128-128 128zM938 810.667c46 0 86-40 86-86v-596c0-46-40-86-86-86h-852c-46 0-86 40-86 86v596c0 46 40 86 86 86h852zM896 596.667l-128-84-128 84v44l128-86 128 86v-44z" />
<glyph unicode="&#xe0d1;" glyph-name="ring_volume" d="M274 520.667c0 0-148 148-152 150l60 62 152-152zM554 852.667v-212h-84v212h84zM902 670.667c-4-2-152-150-152-150l-60 60 152 152zM1012 226.667c8-8 12-18 12-30s-4-22-12-30l-106-106c-8-8-18-12-30-12s-22 4-30 12c-34 32-72 60-114 80-14 6-24 22-24 38v132c-62 20-128 30-196 30s-134-10-196-30v-132c0-18-10-34-24-40-42-20-80-46-114-78-8-8-18-12-30-12s-22 4-30 12l-106 106c-8 8-12 18-12 30s4 22 12 30c130 124 306 200 500 200s370-76 500-200z" />
<glyph unicode="&#xe0d7;" glyph-name="swap_calls" d="M768 768.667l170-172h-128v-298c0-94-76-170-170-170s-170 76-170 170v298c0 46-40 86-86 86s-86-40-86-86v-298h128l-170-170-170 170h128v298c0 94 76 172 170 172s170-78 170-172v-298c0-46 40-86 86-86s86 40 86 86v298h-128z" />
<glyph unicode="&#xe0da;" glyph-name="vpn_key" d="M298 340.667c46 0 86 40 86 86s-40 86-86 86-84-40-84-86 38-86 84-86zM540 512.667h442v-172h-86v-170h-170v170h-186c-34-100-130-170-242-170-142 0-256 114-256 256s114 256 256 256c112 0 208-70 242-170z" />
<glyph unicode="&#xe0e0;" glyph-name="import_contacts" d="M896 148.667v492c-46 14-98 20-150 20-72 0-176-28-234-64v-490c58 36 162 64 234 64 52 0 104-8 150-22zM746 746.667c88.409 0 181.498-22.075 236-64v-622c0-10-12-22-22-22-4 0-6 0-10 2-60 32-134 44-204 44-72 0-176-28-234-64-62 46-150 64-234 64-62 0-146-18-204-46-4 0-6-2-10-2-10 0-22 10-22 20v626c62 46 152 64 236 64s172-18 234-64c62 46 150 64 234 64z" />
<glyph unicode="&#xe0e4;" glyph-name="call_missed_outgoing" d="M128 580.667l60 60 324-324 238 238h-196v86h342v-342h-86v196l-298-298z" />
<glyph unicode="&#xe0e5;" glyph-name="rss_feed" d="M170 508.667c234 0 424-190 424-424h-122c0 166-136 302-302 302v122zM170 748.667c366 0 664-298 664-664h-120c0 300-244 544-544 544v120zM170 178.667c0 52 42 92 94 92s92-40 92-92-40-94-92-94-94 42-94 94z" />
<glyph unicode="&#xe145;" glyph-name="add" d="M810 384.667h-256v-256h-84v256h-256v84h256v256h84v-256h256v-84z" />
<glyph unicode="&#xe146;" glyph-name="add_box" d="M726 384.667v84h-172v172h-84v-172h-172v-84h172v-172h84v172h172zM810 810.667c46 0 86-40 86-86v-596c0-46-40-86-86-86h-596c-48 0-86 40-86 86v596c0 46 38 86 86 86h596z" />
<glyph unicode="&#xe147;" glyph-name="add_circle" d="M726 384.667v84h-172v172h-84v-172h-172v-84h172v-172h84v172h172zM512 852.667c236 0 426-190 426-426s-190-426-426-426-426 190-426 426 190 426 426 426z" />
<glyph unicode="&#xe14a;" glyph-name="backspace" d="M810 272.667l-152 154 152 154-60 60-152-154-154 154-60-60 154-154-154-154 60-60 154 154 152-154zM938 810.667c46 0 86-40 86-86v-596c0-46-40-86-86-86h-640c-30 0-52 16-68 38l-230 346 230 346c16 22 38 38 68 38h640z" />
<glyph unicode="&#xe14b;" glyph-name="block" d="M512 84.667c188 0 342 154 342 342 0 78-26 152-72 210l-480-480c58-46 132-72 210-72zM170 426.667c0-78 26-152 72-210l480 480c-58 46-132 72-210 72-188 0-342-154-342-342zM512 852.667c236 0 426-190 426-426s-190-426-426-426-426 190-426 426 190 426 426 426z" />
<glyph unicode="&#xe14e;" glyph-name="content_cut" d="M810 810.667h128v-42l-298-300-86 86zM512 404.667c12 0 22 10 22 22s-10 22-22 22-22-10-22-22 10-22 22-22zM256 84.667c46 0 86 38 86 86s-40 86-86 86-86-38-86-86 40-86 86-86zM256 596.667c46 0 86 38 86 86s-40 86-86 86-86-38-86-86 40-86 86-86zM412 612.667l526-528v-42h-128l-298 298-100-100c10-22 14-44 14-70 0-94-76-170-170-170s-170 76-170 170 76 170 170 170c26 0 48-4 70-14l100 100-100 100c-22-10-44-14-70-14-94 0-170 76-170 170s76 170 170 170 170-76 170-170c0-26-4-48-14-70z" />
<glyph unicode="&#xe151;" glyph-name="drafts" d="M512 384.667l352 220-352 206-352-206zM938 596.667v-426c0-46-38-86-84-86h-684c-46 0-84 40-84 86v426c0 30 16 60 40 74l386 226 386-226c24-14 40-44 40-74z" />
<glyph unicode="&#xe152;" glyph-name="filter_list" d="M256 384.667v84h512v-84h-512zM128 682.667h768v-86h-768v86zM426 170.667v86h172v-86h-172z" />
<glyph unicode="&#xe153;" glyph-name="flag1" d="M614 682.667h240v-426h-300l-16 84h-240v-298h-84v726h384z" />
<glyph unicode="&#xe157;" glyph-name="link1" d="M726 640.667c118 0 212-96 212-214s-94-214-212-214h-172v82h172c72 0 132 60 132 132s-60 132-132 132h-172v82h172zM342 384.667v84h340v-84h-340zM166 426.667c0-72 60-132 132-132h172v-82h-172c-118 0-212 96-212 214s94 214 212 214h172v-82h-172c-72 0-132-60-132-132z" />
<glyph unicode="&#xe15a;" glyph-name="redo" d="M786 486.667l152 154v-384h-384l156 154c-60 50-136 80-220 80-152 0-280-98-324-234l-100 32c58 178 226 308 424 308 114 0 218-42 296-110z" />
<glyph unicode="&#xe15b;" glyph-name="remove" d="M810 384.667h-596v84h596v-84z" />
<glyph unicode="&#xe15c;" glyph-name="remove_circle" d="M726 384.667v84h-428v-84h428zM512 852.667c236 0 426-190 426-426s-190-426-426-426-426 190-426 426 190 426 426 426z" />
<glyph unicode="&#xe15d;" glyph-name="remove_circle_outline" d="M512 84.667c188 0 342 154 342 342s-154 342-342 342-342-154-342-342 154-342 342-342zM512 852.667c236 0 426-190 426-426s-190-426-426-426-426 190-426 426 190 426 426 426zM298 468.667h428v-84h-428v84z" />
<glyph unicode="&#xe15f;" glyph-name="reply_all" d="M554 554.667c298-42 428-256 470-470-106 150-256 218-470 218v-174l-298 298 298 298v-170zM298 596.667l-170-170 170-170v-128l-298 298 298 298v-128z" />
<glyph unicode="&#xe160;" glyph-name="report" d="M554 384.667v256h-84v-256h84zM512 200.667c30 0 56 26 56 56s-26 54-56 54-56-24-56-54 26-56 56-56zM672 810.667l224-224v-320l-224-224h-320l-224 224v320l224 224h320z" />
<glyph unicode="&#xe161;" glyph-name="save1" d="M640 554.667v170h-426v-170h426zM512 128.667c70 0 128 58 128 128s-58 128-128 128-128-58-128-128 58-128 128-128zM726 810.667l170-170v-512c0-46-40-86-86-86h-596c-48 0-86 40-86 86v596c0 46 38 86 86 86h512z" />
<glyph unicode="&#xe163;" glyph-name="send" d="M86 42.667v298l640 86-640 86v298l896-384z" />
<glyph unicode="&#xe164;" glyph-name="sort" d="M128 384.667v84h512v-84h-512zM128 682.667h768v-86h-768v86zM128 170.667v86h256v-86h-256z" />
<glyph unicode="&#xe165;" glyph-name="text_format" d="M512 682.667l-80-214h160zM406 392.667l-40-94h-88l202 470h64l202-470h-88l-40 94h-212zM214 212.667h596v-84h-596v84z" />
<glyph unicode="&#xe166;" glyph-name="undo" d="M534 596.667c198 0 364-130 424-308l-100-32c-44 136-172 234-324 234-84 0-160-30-220-80l156-154h-384v384l152-154c78 68 182 110 296 110z" />
<glyph unicode="&#xe167;" glyph-name="font_download" d="M680 148.667h90l-218 556h-80l-218-556h90l48 128h240zM854 852.667c46 0 84-38 84-84v-684c0-46-38-84-84-84h-684c-46 0-84 38-84 84v684c0 46 38 84 84 84h684zM424 362.667l88 236 88-236h-176z" />
<glyph unicode="&#xe16c;" glyph-name="delete_sweep" d="M598 724.667v-84h-512v84h128l42 44h170l44-44h128zM128 170.667v426h426v-426c0-46-38-86-84-86h-256c-46 0-86 40-86 86zM640 426.667h256v-86h-256v86zM640 596.667h298v-84h-298v84zM640 256.667h170v-86h-170v86z" />
<glyph unicode="&#xe1a7;" glyph-name="bluetooth" d="M634 242.667l-80 82v-162zM554 690.667v-162l80 82zM756 610.667l-184-184 184-184-244-242h-42v324l-196-196-60 60 238 238-238 238 60 60 196-196v324h42z" />
<glyph unicode="&#xe1a8;" glyph-name="bluetooth_connected" d="M810 512.667l86-86-86-86-84 86zM634 242.667l-80 82v-162zM554 690.667v-162l80 82zM756 610.667l-184-184 184-184-244-242h-42v324l-196-196-60 60 238 238-238 238 60 60 196-196v324h42zM298 426.667l-84-86-86 86 86 86z" />
<glyph unicode="&#xe1a9;" glyph-name="bluetooth_disabled" d="M554 162.667l80 80-80 82v-162zM230 768.667l624-624-60-60-98 98-184-182h-42v324l-196-196-60 60 238 238-282 282zM554 690.667v-138l-84 86v214h42l244-242-130-130-60 60 68 70z" />
<glyph unicode="&#xe1aa;" glyph-name="bluetooth_searching" d="M550 242.667l-80 82v-162zM470 690.667v-162l80 82zM670 610.667l-184-184 184-184-244-242h-42v324l-196-196-60 60 238 238-238 238 60 60 196-196v324h42zM834 652.667c40-64 62-142 62-222 0-84-24-160-66-226l-50 50c26 52 42 110 42 172s-16 120-42 172zM608 426.667l98 98c12-30 20-64 20-98s-8-70-20-100z" />
<glyph unicode="&#xe1ab;" glyph-name="brightness_auto" d="M610 256.667h82l-138 384h-84l-138-384h82l30 84h136zM854 568.667l140-142-140-142v-200h-200l-142-140-142 140h-200v200l-140 142 140 142v200h200l142 140 142-140h200v-200zM462 398.667l50 156 50-156h-100z" />
<glyph unicode="&#xe1af;" glyph-name="data_usage" d="M512 128.667c94 0 178 44 232 112l112-66c-78-106-202-174-344-174-236 0-426 190-426 426 0 222 168 402 384 424v-128c-144-20-256-146-256-296 0-166 132-298 298-298zM554 850.667c216-22 384-202 384-424 0-62-12-122-36-174l-112 66c12 34 20 70 20 108 0 150-112 276-256 296v128z" />
<glyph unicode="&#xe1b6;" glyph-name="location_disabled" d="M694 190.667l-418 418c-38-50-62-114-62-182 0-166 132-298 298-298 68 0 132 24 182 62zM128 756.667l54 54 714-714-54-54-88 88c-56-46-124-78-200-86v-88h-84v88c-178 20-320 162-340 340h-88v84h88c8 76 40 144 86 200zM894 468.667h88v-84h-88c-6-48-20-96-42-136l-64 64c14 34 22 74 22 114 0 166-132 298-298 298-40 0-80-8-114-22l-64 64c42 22 88 36 136 42v88h84v-88c178-20 320-162 340-340z" />
<glyph unicode="&#xe1b7;" glyph-name="location_searching" d="M512 128.667c166 0 298 132 298 298s-132 298-298 298-298-132-298-298 132-298 298-298zM894 468.667h88v-84h-88c-20-178-162-320-340-340v-88h-84v88c-178 20-320 162-340 340h-88v84h88c20 178 162 320 340 340v88h84v-88c178-20 320-162 340-340z" />
<glyph unicode="&#xe1b8;" glyph-name="graphic_eq" d="M810 512.667h86v-172h-86v172zM640 170.667v512h86v-512h-86zM128 340.667v172h86v-172h-86zM470 0.667v852h84v-852h-84zM298 170.667v512h86v-512h-86z" />
<glyph unicode="&#xe1b9;" glyph-name="network_cell" d="M938 0.667h-852l852 852v-852z" />
<glyph unicode="&#xe1ba;" glyph-name="network_wifi" d="M872.5 471.839c0.568-0.445 1.068-0.837 1.5-1.172l-362-448-362 448c0.431 0.335 0.931 0.727 1.5 1.172l-135.5 168.828c20 14 210 170 496 170s476-156 496-170z" />
<glyph unicode="&#xe1c1;" glyph-name="screen_rotation" d="M320 22.667l58 56 162-162-28-2c-268 0-488 208-510 470h64c16-160 114-296 254-362zM632 34.667l272 272-512 512-272-272zM436 864.667l514-514c26-24 26-64 0-90l-272-272c-24-26-64-26-90 0l-514 514c-26 24-26 64 0 90l272 272c24 26 64 26 90 0zM704 830.667l-58-56-162 162 28 2c268 0 488-208 510-470h-64c-16 160-114 296-254 362z" />
<glyph unicode="&#xe1c8;" glyph-name="signal_cellular_4_bar" d="M86 0.667l852 852v-852h-852z" />
<glyph unicode="&#xe1cd;" glyph-name="signal_cellular_connected_no_internet_4_bar" d="M86 0.667l852 852v-256h-170v-596h-682zM854 0.667v84h84v-84h-84zM854 170.667v342h84v-342h-84z" />
<glyph unicode="&#xe1cf;" glyph-name="signal_cellular_null" d="M938 852.667v-852h-852zM854 646.667l-562-562h562v562z" />
<glyph unicode="&#xe1d0;" glyph-name="signal_cellular_off" d="M204 746.667l734-736-54-54-84 86h-758l378 378-270 272zM896 896.667v-734l-366 366z" />
<glyph unicode="&#xe1d8;" glyph-name="signal_wifi_4_bar" d="M512 22.667l-496 618c20 14 210 170 496 170s476-156 496-170z" />
<glyph unicode="&#xe226;" glyph-name="attach_file" d="M704 682.667h64v-490c0-130-104-236-234-236s-236 106-236 236v532c0 94 78 172 172 172s170-78 170-172v-448c0-58-48-106-106-106s-108 48-108 106v406h64v-406c0-24 20-42 44-42s42 18 42 42v448c0 58-48 108-106 108s-108-50-108-108v-532c0-94 78-172 172-172s170 78 170 172v490z" />
<glyph unicode="&#xe227;" glyph-name="attach_money" d="M504 472.667c96-26 200-64 200-186 0-88-66-136-150-152v-92h-128v92c-82 18-150 70-156 164h94c4-50 38-90 126-90 94 0 116 46 116 76 0 40-22 78-128 104-120 28-200 78-200 176 0 82 66 136 148 154v92h128v-94c90-22 136-88 138-162h-94c-2 54-32 90-108 90-72 0-114-34-114-80 0-40 32-66 128-92z" />
<glyph unicode="&#xe228;" glyph-name="border_all" d="M810 468.667v256h-256v-256h256zM810 128.667v256h-256v-256h256zM470 468.667v256h-256v-256h256zM470 128.667v256h-256v-256h256zM128 810.667h768v-768h-768v768z" />
<glyph unicode="&#xe22b;" glyph-name="border_color" d="M0 84.667h1024v-170h-1024v170zM884 766.667l-84-84-160 160 84 84c16 16 44 16 60 0l100-100c16-16 16-44 0-60zM758 640.667l-428-428h-160v160l428 428z" />
<glyph unicode="&#xe22f;" glyph-name="border_outer" d="M384 468.667v-84h-86v84h86zM554 298.667v-86h-84v86h84zM810 128.667v596h-596v-596h596zM128 810.667h768v-768h-768v768zM726 468.667v-84h-86v84h86zM554 468.667v-84h-84v84h84zM554 640.667v-86h-84v86h84z" />
<glyph unicode="&#xe234;" glyph-name="format_align_center" d="M128 810.667h768v-86h-768v86zM298 640.667h428v-86h-428v86zM128 384.667v84h768v-84h-768zM128 42.667v86h768v-86h-768zM298 298.667h428v-86h-428v86z" />
<glyph unicode="&#xe235;" glyph-name="format_align_justify" d="M128 810.667h768v-86h-768v86zM128 554.667v86h768v-86h-768zM128 384.667v84h768v-84h-768zM128 212.667v86h768v-86h-768zM128 42.667v86h768v-86h-768z" />
<glyph unicode="&#xe236;" glyph-name="format_align_left" d="M128 810.667h768v-86h-768v86zM128 42.667v86h768v-86h-768zM128 384.667v84h768v-84h-768zM640 640.667v-86h-512v86h512zM640 298.667v-86h-512v86h512z" />
<glyph unicode="&#xe237;" glyph-name="format_align_right" d="M128 810.667h768v-86h-768v86zM384 554.667v86h512v-86h-512zM128 384.667v84h768v-84h-768zM384 212.667v86h512v-86h-512zM128 42.667v86h768v-86h-768z" />
<glyph unicode="&#xe238;" glyph-name="format_bold" d="M576 276.667c36 0 64 28 64 64s-28 64-64 64h-150v-128h150zM426 660.667v-128h128c36 0 64 28 64 64s-28 64-64 64h-128zM666 478.667c56-26 92-82 92-146 0-90-68-162-158-162h-302v598h268c96 0 170-76 170-172 0-44-28-90-70-118z" />
<glyph unicode="&#xe239;" glyph-name="format_clear" d="M256 724.667h598v-128h-248l-68-160-90 88 30 72h-102l-120 120v8zM140 724.667l12-10 616-618-54-54-242 242-66-156h-128l104 246-296 296z" />
<glyph unicode="&#xe23a;" glyph-name="format_color_fill" d="M0 84.667h1024v-170h-1024v170zM810 448.667c0 0 86-94 86-150 0-46-40-86-86-86s-84 40-84 86c0 56 84 150 84 150zM222 512.667h410l-206 204zM706 556.667c26-26 26-66 0-90l-234-234c-12-12-30-20-46-20s-32 8-44 20l-236 234c-26 24-26 64 0 90l220 220-102 102 62 60z" />
<glyph unicode="&#xe23b;" glyph-name="format_color_reset" d="M224 714.667l624-624-54-54-114 112c-46-40-104-64-168-64-142 0-256 114-256 256 0 52 24 114 56 176l-142 142zM768 340.667c0-20-2-38-6-56l-366 368c60 86 116 150 116 150s256-292 256-462z" />
<glyph unicode="&#xe23c;" glyph-name="format_color_text" d="M410 426.667h204l-102 270zM470 810.667h84l234-598h-96l-46 128h-268l-48-128h-96zM0 84.667h1024v-170h-1024v170z" />
<glyph unicode="&#xe23d;" glyph-name="format_indent_decrease" d="M470 384.667v84h426v-84h-426zM470 554.667v86h426v-86h-426zM128 810.667h768v-86h-768v86zM128 42.667v86h768v-86h-768zM128 426.667l170 170v-340zM470 212.667v86h426v-86h-426z" />
<glyph unicode="&#xe23e;" glyph-name="format_indent_increase" d="M470 384.667v84h426v-84h-426zM470 554.667v86h426v-86h-426zM128 810.667h768v-86h-768v86zM470 212.667v86h426v-86h-426zM128 596.667l170-170-170-170v340zM128 42.667v86h768v-86h-768z" />
<glyph unicode="&#xe23f;" glyph-name="format_italic" d="M426 768.667h342v-128h-120l-144-342h94v-128h-342v128h120l144 342h-94v128z" />
<glyph unicode="&#xe240;" glyph-name="format_line_spacing" d="M426 384.667v84h512v-84h-512zM426 128.667v84h512v-84h-512zM426 724.667h512v-84h-512v84zM256 640.667v-428h106l-148-148-150 148h106v428h-106l150 148 148-148h-106z" />
<glyph unicode="&#xe241;" glyph-name="format_list_bulleted" d="M298 724.667h598v-84h-598v84zM298 384.667v84h598v-84h-598zM298 128.667v84h598v-84h-598zM170 234.667c36 0 64-30 64-64s-30-64-64-64-64 30-64 64 28 64 64 64zM170 746.667c36 0 64-28 64-64s-28-64-64-64-64 28-64 64 28 64 64 64zM170 490.667c36 0 64-28 64-64s-28-64-64-64-64 28-64 64 28 64 64 64z" />
<glyph unicode="&#xe242;" glyph-name="format_list_numbered" d="M298 384.667v84h598v-84h-598zM298 128.667v84h598v-84h-598zM298 724.667h598v-84h-598v84zM86 468.667v44h128v-40l-78-88h78v-44h-128v40l76 88h-76zM128 596.667v128h-42v44h84v-172h-42zM86 212.667v44h128v-172h-128v44h84v20h-42v44h42v20h-84z" />
<glyph unicode="&#xe244;" glyph-name="format_quote" d="M598 212.667l84 172h-128v256h256v-256l-84-172h-128zM256 212.667l86 172h-128v256h256v-256l-86-172h-128z" />
<glyph unicode="&#xe245;" glyph-name="format_size" d="M128 426.667v128h384v-128h-128v-298h-128v298h-128zM384 768.667h554v-128h-212v-512h-128v512h-214v128z" />
<glyph unicode="&#xe246;" glyph-name="format_strikethrough" d="M128 340.667v86h768v-86h-768zM214 768.667h596v-128h-212v-128h-172v128h-212v128zM426 128.667v128h172v-128h-172z" />
<glyph unicode="&#xe247;" glyph-name="format_textdirection_l_to_r" d="M896 170.667l-170-170v128h-512v84h512v128zM384 512.667c-94 0-170 76-170 170s76 170 170 170h342v-84h-86v-470h-86v470h-84v-470h-86v214z" />
<glyph unicode="&#xe248;" glyph-name="format_textdirection_r_to_l" d="M342 212.667h512v-84h-512v-128l-172 170 172 170v-128zM426 512.667c-94 0-170 76-170 170s76 170 170 170h342v-84h-86v-470h-84v470h-86v-470h-86v214z" />
<glyph unicode="&#xe249;" glyph-name="format_underlined" d="M214 128.667h596v-86h-596v86zM512 212.667c-142 0-256 114-256 256v342h106v-342c0-82 68-148 150-148s150 66 150 148v342h106v-342c0-142-114-256-256-256z" />
<glyph unicode="&#xe24c;" glyph-name="insert_comment" d="M768 596.667v86h-512v-86h512zM768 468.667v86h-512v-86h512zM768 340.667v86h-512v-86h512zM854 852.667c46 0 84-38 84-84v-768l-170 170h-598c-46 0-84 40-84 86v512c0 46 38 84 84 84h684z" />
<glyph unicode="&#xe24f;" glyph-name="insert_invitation" d="M810 128.667v468h-596v-468h596zM682 896.667h86v-86h42c46 0 86-40 86-86v-596c0-46-40-86-86-86h-596c-48 0-86 40-86 86v596c0 46 38 86 86 86h42v86h86v-86h340v86zM726 426.667v-214h-214v214h214z" />
<glyph unicode="&#xe252;" glyph-name="merge_type" d="M320 596.667l192 192 192-192h-150v-272l-256-256-60 60 232 230v238h-150zM726 68.667l-146 144 60 60 146-144z" />
<glyph unicode="&#xe254;" glyph-name="mode_edit" d="M884 638.667l-78-78-160 160 78 78c16 16 44 16 60 0l100-100c16-16 16-44 0-60zM128 202.667l472 472 160-160-472-472h-160v160z" />
<glyph unicode="&#xe255;" glyph-name="publish" d="M214 340.667l298 300 298-300h-170v-256h-256v256h-170zM214 768.667h596v-86h-596v86z" />
<glyph unicode="&#xe256;" glyph-name="space_bar" d="M768 554.667h86v-256h-684v256h86v-170h512v170z" />
<glyph unicode="&#xe258;" glyph-name="vertical_align_bottom" d="M170 128.667h684v-86h-684v86zM682 384.667l-170-172-170 172h128v426h84v-426h128z" />
<glyph unicode="&#xe259;" glyph-name="vertical_align_center" d="M170 468.667h684v-84h-684v84zM682 724.667l-170-170-170 170h128v172h84v-172h128zM342 128.667l170 170 170-170h-128v-172h-84v172h-128z" />
<glyph unicode="&#xe25a;" glyph-name="vertical_align_top" d="M170 810.667h684v-86h-684v86zM342 468.667l170 172 170-172h-128v-426h-84v426h-128z" />
<glyph unicode="&#xe25d;" glyph-name="drag_handle" d="M170 298.667v86h684v-86h-684zM854 554.667v-86h-684v86h684z" />
<glyph unicode="&#xe25e;" glyph-name="format_shapes" d="M456 394.667h112l-56 164zM586 340.667h-150l-30-84h-70l146 384h60l144-384h-68zM810 724.667h86v86h-86v-86zM896 42.667v86h-86v-86h86zM726 128.667v84h84v428h-84v84h-428v-84h-84v-428h84v-84h428zM214 42.667v86h-86v-86h86zM128 810.667v-86h86v86h-86zM982 640.667h-86v-428h86v-256h-256v86h-428v-86h-256v256h86v428h-86v256h256v-86h428v86h256v-256z" />
<glyph unicode="&#xe25f;" glyph-name="highlight" d="M724 658.667l90 90 60-60-90-92zM150 688.667l60 60 90-90-60-62zM470 852.667h84v-128h-84v128zM256 340.667v214h512v-214l-128-128v-212h-256v212z" />
<glyph unicode="&#xe260;" glyph-name="linear_scale" d="M832 532.667c58 0 106-48 106-106s-48-106-106-106c-44 0-82 26-98 64h-124c-16-38-54-64-98-64s-82 26-98 64h-124c-16-38-54-64-98-64-58 0-106 48-106 106s48 106 106 106c44 0 82-26 98-64h124c16 38 54 64 98 64s82-26 98-64h124c16 38 54 64 98 64z" />
<glyph unicode="&#xe261;" glyph-name="short_text" d="M170 384.667h428v-86h-428v86zM170 554.667h684v-86h-684v86z" />
<glyph unicode="&#xe262;" glyph-name="text_fields" d="M918 554.667v-128h-128v-298h-128v298h-128v128h384zM106 768.667h556v-128h-214v-512h-128v512h-214v128z" />
<glyph unicode="&#xe264;" glyph-name="title" d="M214 768.667h596v-128h-234v-512h-128v512h-234v128z" />
<glyph unicode="&#xe2bc;" glyph-name="attachment1" d="M86 404.667c0 130 104 236 234 236h448c94 0 170-78 170-172s-76-170-170-170h-362c-58 0-108 48-108 106s50 108 108 108h320v-86h-324c-24 0-24-42 0-42h366c46 0 86 38 86 84s-40 86-86 86h-448c-82 0-150-68-150-150s68-148 150-148h406v-86h-406c-130 0-234 104-234 234z" />
<glyph unicode="&#xe2be;" glyph-name="cloud_circle" d="M704 256.667c58 0 106 48 106 106s-48 106-106 106h-22c0 94-76 172-170 172-80 0-146-56-164-130l-6 2c-70 0-128-58-128-128s58-128 128-128h362zM512 852.667c236 0 426-190 426-426s-190-426-426-426-426 190-426 426 190 426 426 426z" />
<glyph unicode="&#xe2bf;" glyph-name="cloud_done" d="M426 212.667l282 282-60 60-222-220-88 88-60-60zM826 510.667c110-8 198-100 198-212 0-118-96-214-214-214h-554c-142 0-256 114-256 256 0 132 100 240 228 254 54 102 160 174 284 174 156 0 284-110 314-258z" />
<glyph unicode="&#xe2c0;" glyph-name="cloud_download" d="M726 384.667h-128v170h-172v-170h-128l214-214zM826 510.667c110-8 198-100 198-212 0-118-96-214-214-214h-554c-142 0-256 114-256 256 0 132 100 240 228 254 54 102 160 174 284 174 156 0 284-110 314-258z" />
<glyph unicode="&#xe2c1;" glyph-name="cloud_off" d="M330 512.667h-74c-94 0-170-78-170-172s76-170 170-170h416zM128 714.667l54 54 714-714-54-54-86 84h-500c-142 0-256 114-256 256 0 138 110 250 246 256zM826 510.667c110-8 198-100 198-212 0-72-36-136-90-174l-62 62c40 22 66 64 66 112 0 70-58 128-128 128h-64v22c0 130-104 234-234 234-40 0-76-8-108-26l-64 62c50 32 108 50 172 50 156 0 284-110 314-258z" />
<glyph unicode="&#xe2c2;" glyph-name="cloud_queue" d="M810 170.667c70 0 128 58 128 128s-58 128-128 128h-64v22c0 130-104 234-234 234-108 0-198-72-226-170h-30c-94 0-170-78-170-172s76-170 170-170h554zM826 510.667c110-8 198-100 198-212 0-118-96-214-214-214h-554c-142 0-256 114-256 256 0 132 100 240 228 254 54 102 160 174 284 174 156 0 284-110 314-258z" />
<glyph unicode="&#xe2c3;" glyph-name="cloud_upload" d="M598 384.667h128l-214 212-214-212h128v-172h172v172zM826 510.667c110-8 198-100 198-212 0-118-96-214-214-214h-554c-142 0-256 114-256 256 0 132 100 240 228 254 54 102 160 174 284 174 156 0 284-110 314-258z" />
<glyph unicode="&#xe2c6;" glyph-name="file_upload" d="M214 170.667h596v-86h-596v86zM384 256.667v256h-170l298 298 298-298h-170v-256h-256z" />
<glyph unicode="&#xe2c7;" glyph-name="folder1" d="M426 768.667l86-86h342c46 0 84-40 84-86v-426c0-46-38-86-84-86h-684c-46 0-84 40-84 86v512c0 46 38 86 84 86h256z" />
<glyph unicode="&#xe2c8;" glyph-name="folder_open" d="M854 170.667v426h-684v-426h684zM854 682.667c46 0 84-40 84-86v-426c0-46-38-86-84-86h-684c-46 0-84 40-84 86v512c0 46 38 86 84 86h256l86-86h342z" />
<glyph unicode="&#xe2c9;" glyph-name="folder_shared" d="M810 212.667v44c0 56-114 84-170 84s-170-28-170-84v-44h340zM640 554.667c-46 0-86-40-86-86s40-84 86-84 86 38 86 84-40 86-86 86zM854 682.667c46 0 84-40 84-86v-426c0-46-38-86-84-86h-684c-46 0-84 40-84 86v512c0 46 38 86 84 86h256l86-86h342z" />
<glyph unicode="&#xe2cc;" glyph-name="create_new_folder" d="M810 340.667v86h-128v128h-84v-128h-128v-86h128v-128h84v128h128zM854 682.667c48 0 84-38 84-86v-426c0-48-36-86-84-86h-684c-48 0-84 38-84 86v512c0 48 36 86 84 86h256l86-86h342z" />
<glyph unicode="&#xe30d;" glyph-name="developer_board" d="M512 468.667h170v-256h-170v256zM256 640.667h214v-214h-214v214zM512 640.667h170v-128h-170v128zM256 384.667h214v-172h-214v172zM768 128.667v596h-598v-596h598zM938 554.667h-84v-86h84v-84h-84v-86h84v-86h-84v-84c0-46-40-86-86-86h-598c-46 0-84 40-84 86v596c0 46 38 86 84 86h598c46 0 86-40 86-86v-84h84v-86z" />
<glyph unicode="&#xe310;" glyph-name="headset" d="M512 896.667c212 0 384-172 384-384v-300c0-70-58-128-128-128h-128v342h170v86c0 166-132 298-298 298s-298-132-298-298v-86h170v-342h-128c-70 0-128 58-128 128v300c0 212 172 384 384 384z" />
<glyph unicode="&#xe311;" glyph-name="headset_mic" d="M512 896.667c212 0 384-172 384-384v-428c0-70-58-128-128-128h-256v86h298v42h-170v342h170v86c0 166-132 298-298 298s-298-132-298-298v-86h170v-342h-128c-70 0-128 58-128 128v300c0 212 172 384 384 384z" />
<glyph unicode="&#xe313;" glyph-name="keyboard_arrow_down" d="M316 604.667l196-196 196 196 60-60-256-256-256 256z" />
<glyph unicode="&#xe314;" glyph-name="keyboard_arrow_left" d="M658 252.667l-60-60-256 256 256 256 60-60-196-196z" />
<glyph unicode="&#xe315;" glyph-name="keyboard_arrow_right" d="M366 240.667l196 196-196 196 60 60 256-256-256-256z" />
<glyph unicode="&#xe316;" glyph-name="keyboard_arrow_up" d="M316 280.667l-60 60 256 256 256-256-60-60-196 196z" />
<glyph unicode="&#xe317;" glyph-name="keyboard_backspace" d="M896 468.667v-84h-604l152-154-60-60-256 256 256 256 60-60-152-154h604z" />
<glyph unicode="&#xe318;" glyph-name="keyboard_capslock" d="M256 170.667v86h512v-86h-512zM512 580.667l-196-196-60 60 256 256 256-256-60-60z" />
<glyph unicode="&#xe31a;" glyph-name="keyboard_hide" d="M512-43.333l-170 172h340zM810 596.667v86h-84v-86h84zM810 468.667v86h-84v-86h84zM682 596.667v86h-84v-86h84zM682 468.667v86h-84v-86h84zM682 298.667v86h-340v-86h340zM298 596.667v86h-84v-86h84zM298 468.667v86h-84v-86h84zM342 554.667v-86h84v86h-84zM342 682.667v-86h84v86h-84zM470 554.667v-86h84v86h-84zM470 682.667v-86h84v86h-84zM854 810.667c46 0 84-40 84-86v-426c0-46-38-86-84-86h-684c-46 0-84 40-84 86v426c0 46 38 86 84 86h684z" />
<glyph unicode="&#xe31b;" glyph-name="keyboard_return" d="M810 640.667h86v-256h-648l154-154-60-60-256 256 256 256 60-60-154-154h562v172z" />
<glyph unicode="&#xe31c;" glyph-name="keyboard_tab" d="M854 682.667h84v-512h-84v512zM494 622.667l60 60 256-256-256-256-60 60 154 154h-606v84h606z" />
<glyph unicode="&#xe31d;" glyph-name="keyboard_voice" d="M738 426.667h72c0-146-116-266-256-286v-140h-84v140c-140 20-256 140-256 286h72c0-128 108-218 226-218s226 90 226 218zM512 298.667c-70 0-128 58-128 128v256c0 70 58 128 128 128s128-58 128-128v-256c0-70-58-128-128-128z" />
<glyph unicode="&#xe31e;" glyph-name="laptop" d="M170 682.667v-426h684v426h-684zM854 170.667h170v-86h-1024v86h170c-46 0-84 40-84 86v426c0 46 38 86 84 86h684c46 0 84-40 84-86v-426c0-46-38-86-84-86z" />
<glyph unicode="&#xe31f;" glyph-name="laptop_chromebook" d="M854 298.667v426h-684v-426h684zM598 170.667v42h-172v-42h172zM938 170.667h86v-86h-1024v86h86v640h852v-640z" />
<glyph unicode="&#xe320;" glyph-name="laptop_mac" d="M512 128.667c24 0 42 18 42 42s-18 42-42 42-42-18-42-42 18-42 42-42zM170 724.667v-468h684v468h-684zM854 170.667h170c0-46-40-86-86-86h-852c-46 0-86 40-86 86h170c-46 0-84 40-84 86v468c0 46 38 86 84 86h684c46 0 84-40 84-86v-468c0-46-38-86-84-86z" />
<glyph unicode="&#xe321;" glyph-name="laptop_windows" d="M170 724.667v-426h684v426h-684zM854 170.667h170v-86h-1024v86h170v42c-46 0-84 40-84 86v426c0 46 38 86 84 86h684c46 0 84-40 84-86v-426c0-46-38-86-84-86v-42z" />
<glyph unicode="&#xe322;" glyph-name="memory" d="M726 212.667v428h-428v-428h428zM896 468.667h-86v-84h86v-86h-86v-86c0-46-38-84-84-84h-86v-86h-86v86h-84v-86h-86v86h-86c-46 0-84 38-84 84v86h-86v86h86v84h-86v86h86v86c0 46 38 84 84 84h86v86h86v-86h84v86h86v-86h86c46 0 84-38 84-84v-86h86v-86zM554 384.667v84h-84v-84h84zM640 554.667v-256h-256v256h256z" />
<glyph unicode="&#xe326;" glyph-name="phonelink" d="M938 212.667v300h-170v-300h170zM982 596.667c24 0 42-18 42-42v-426c0-24-18-44-42-44h-256c-24 0-44 20-44 44v426c0 24 20 42 44 42h256zM170 682.667v-470h428v-128h-598v128h86v470c0 46 38 86 84 86h768v-86h-768z" />
<glyph unicode="&#xe327;" glyph-name="phonelink_off" d="M982 596.667c24 0 42-18 42-42v-426c0-24-18-44-42-44h-8l-128 128h92v300h-170v-222l-86 86v178c0 24 20 42 44 42h256zM170 670.667v-458h458zM82 868.667c276.214-276.452 551.97-553.364 828-830l-54-54-100 100h-756v128h86v470c0 20 8 40 20 54l-78 78zM938 682.667h-562l-86 86h648v-86z" />
<glyph unicode="&#xe328;" glyph-name="router" d="M640 170.667v86h-86v-86h86zM490 170.667v86h-84v-86h84zM342 170.667v86h-86v-86h86zM810 384.667c46 0 86-40 86-86v-170c0-46-40-86-86-86h-596c-46 0-86 40-86 86v170c0 46 40 86 86 86h426v170h86v-170h84zM824 652.667l-34-34c-30 30-70 42-108 42s-76-12-106-42l-34 34c38 38 88 60 140 60s104-22 142-60zM862 686.667c-52 46-116 72-180 72s-126-26-178-72l-34 34c60 60 136 90 212 90s154-30 214-90z" />
<glyph unicode="&#xe332;" glyph-name="toys" d="M512 426.667c0-128-106-234-234-234s-236 106-236 234h470zM512 426.667c-128 0-234 106-234 234s106 236 234 236v-470zM512 426.667c128 0 234-106 234-234s-106-236-234-236v470zM512 426.667c0 128 106 234 234 234s236-106 236-234h-470z" />
<glyph unicode="&#xe334;" glyph-name="watch" d="M256 426.667c0-142 114-256 256-256s256 114 256 256-114 256-256 256-256-114-256-256zM854 426.667c0-108-52-206-130-268l-42-244h-340l-42 244c-80 62-130 160-130 268s50 206 130 268l42 244h340l42-244c78-62 130-160 130-268z" />
<glyph unicode="&#xe336;" glyph-name="power_input" d="M682 298.667v86h214v-86h-214zM384 298.667v86h214v-86h-214zM86 298.667v86h212v-86h-212zM86 554.667h810v-86h-810v86z" />
<glyph unicode="&#xe337;" glyph-name="devices_other" d="M896 170.667v342h-170v-342h170zM938 596.667c22 0 44-20 44-42v-426c0-22-22-44-44-44h-256c-22 0-42 22-42 44v426c0 22 20 42 42 42h256zM470 192.667c36 0 64 28 64 64s-28 64-64 64-64-28-64-64 28-64 64-64zM554 426.667v-76c26-24 44-56 44-94s-18-72-44-96v-76h-170v76c-26 24-42 58-42 96s16 70 42 94v76h170zM128 682.667v-512h170v-86h-170c-46 0-86 40-86 86v512c0 46 40 86 86 86h768v-86h-768z" />
<glyph unicode="&#xe39e;" glyph-name="adjust1" d="M640 426.667c0-70-58-128-128-128s-128 58-128 128 58 128 128 128 128-58 128-128zM512 84.667c188 0 342 154 342 342s-154 342-342 342-342-154-342-342 154-342 342-342zM512 852.667c236 0 426-190 426-426s-190-426-426-426-426 190-426 426 190 426 426 426z" />
<glyph unicode="&#xe39f;" glyph-name="assistant" d="M592 388.667l176 80-176 80-80 176-80-176-176-80 176-80 80-176zM810 852.667c46 0 86-38 86-84v-598c0-46-40-86-86-86h-170l-128-128-128 128h-170c-46 0-86 40-86 86v598c0 46 40 84 86 84h596z" />
<glyph unicode="&#xe3a5;" glyph-name="blur_on" d="M598 576.667c36 0 64-28 64-64s-28-64-64-64-64 28-64 64 28 64 64 64zM598 404.667c36 0 64-28 64-64s-28-64-64-64-64 28-64 64 28 64 64 64zM426 212.667c24 0 44-18 44-42s-20-42-44-42-42 18-42 42 18 42 42 42zM426 576.667c36 0 64-28 64-64s-28-64-64-64-64 28-64 64 28 64 64 64zM598 64.667c12 0 20-10 20-22s-8-22-20-22-22 10-22 22 10 22 22 22zM598 212.667c24 0 42-18 42-42s-18-42-42-42-44 18-44 42 20 42 44 42zM896 362.667c12 0 22-10 22-22s-10-20-22-20-22 8-22 20 10 22 22 22zM768 724.667c24 0 42-18 42-42s-18-42-42-42-42 18-42 42 18 42 42 42zM768 554.667c24 0 42-18 42-42s-18-44-42-44-42 20-42 44 18 42 42 42zM768 212.667c24 0 42-18 42-42s-18-42-42-42-42 18-42 42 18 42 42 42zM768 384.667c24 0 42-20 42-44s-18-42-42-42-42 18-42 42 18 44 42 44zM426 404.667c36 0 64-28 64-64s-28-64-64-64-64 28-64 64 28 64 64 64zM426 640.667c-24 0-42 18-42 42s18 42 42 42 44-18 44-42-20-42-44-42zM426 788.667c-12 0-20 10-20 22s8 22 20 22 22-10 22-22-10-22-22-22zM426 64.667c12 0 22-10 22-22s-10-22-22-22-20 10-20 22 8 22 20 22zM128 362.667c12 0 22-10 22-22s-10-20-22-20-22 8-22 20 10 22 22 22zM598 788.667c-12 0-22 10-22 22s10 22 22 22 20-10 20-22-8-22-20-22zM598 640.667c-24 0-44 18-44 42s20 42 44 42 42-18 42-42-18-42-42-42zM896 490.667c-12 0-22 10-22 22s10 20 22 20 22-8 22-20-10-22-22-22zM256 724.667c24 0 42-18 42-42s-18-42-42-42-42 18-42 42 18 42 42 42zM128 532.667c12 0 22-8 22-20s-10-22-22-22-22 10-22 22 10 20 22 20zM256 554.667c24 0 42-18 42-42s-18-44-42-44-42 20-42 44 18 42 42 42zM256 212.667c24 0 42-18 42-42s-18-42-42-42-42 18-42 42 18 42 42 42zM256 384.667c24 0 42-20 42-44s-18-42-42-42-42 18-42 42 18 44 42 44z" />
<glyph unicode="&#xe3a6;" glyph-name="brightness_1" d="M86 426.667c0 236 190 426 426 426s426-190 426-426-190-426-426-426-426 190-426 426z" />
<glyph unicode="&#xe3ad;" glyph-name="broken_image" d="M768 450.667l128-128v-194c0-46-40-86-86-86h-596c-46 0-86 40-86 86v280l128-128 170 172 172-172zM896 724.667v-280l-128 128-170-172-172 172-170-172-128 130v194c0 46 40 86 86 86h596c46 0 86-40 86-86z" />
<glyph unicode="&#xe3ae;" glyph-name="brush" d="M884 740.667c16-16 16-44 0-60l-382-382-118 118 382 382c16 16 44 16 60 0zM298 340.667c70 0 128-58 128-128 0-94-76-170-170-170-64 0-130 34-170 86 36 0 84 28 84 84 0 70 58 128 128 128z" />
<glyph unicode="&#xe3af;" glyph-name="camera1" d="M420 10.667c68.709 118.625 136.494 238.172 206 356l156-270c-74-60-168-96-270-96-32 0-62 4-92 10zM104 298.667h414l-158-270c-122 46-216 146-256 270zM198 714.667c71.999-124.667 143.587-249.746 216-374h-320c-6 28-8 56-8 86 0 112 42 212 112 288zM930 512.667c6-28 8-56 8-86 0-112-42-212-112-288l-204 352-12 22h320zM920 554.667h-414l158 270c122-46 216-146 256-270zM402 490.667l-4-4-156 270c74 60 168 96 270 96 32 0 62-4 92-10z" />
<glyph unicode="&#xe3b4;" glyph-name="center_focus_strong" d="M810 128.667v170h86v-170c0-46-40-86-86-86h-170v86h170zM810 810.667c46 0 86-40 86-86v-170h-86v170h-170v86h170zM214 724.667v-170h-86v170c0 46 40 86 86 86h170v-86h-170zM214 298.667v-170h170v-86h-170c-46 0-86 40-86 86v170h86zM512 596.667c94 0 170-76 170-170s-76-170-170-170-170 76-170 170 76 170 170 170z" />
<glyph unicode="&#xe3b5;" glyph-name="center_focus_weak" d="M512 340.667c46 0 86 40 86 86s-40 86-86 86-86-40-86-86 40-86 86-86zM512 596.667c94 0 170-76 170-170s-76-170-170-170-170 76-170 170 76 170 170 170zM810 128.667v170h86v-170c0-46-40-86-86-86h-170v86h170zM810 810.667c46 0 86-40 86-86v-170h-86v170h-170v86h170zM214 724.667v-170h-86v170c0 46 40 86 86 86h170v-86h-170zM214 298.667v-170h170v-86h-170c-46 0-86 40-86 86v170h86z" />
<glyph unicode="&#xe3b9;" glyph-name="compare" d="M810 810.667c46 0 86-40 86-86v-596c0-46-40-86-86-86h-212v384l212-256v554h-212v86h212zM426 170.667v256l-212-256h212zM426 810.667v86h86v-940h-86v86h-212c-46 0-86 40-86 86v596c0 46 40 86 86 86h212z" />
<glyph unicode="&#xe3ba;" glyph-name="control_point" d="M512 84.667c188 0 342 154 342 342s-154 342-342 342-342-154-342-342 154-342 342-342zM512 852.667c236 0 426-190 426-426s-190-426-426-426-426 190-426 426 190 426 426 426zM554 640.667v-172h172v-84h-172v-172h-84v172h-172v84h172v172h84z" />
<glyph unicode="&#xe3be;" glyph-name="crop" d="M298 212.667h684v-84h-172v-172h-84v172h-428c-46 0-84 38-84 84v428h-172v84h172v172h84v-684zM726 298.667v342h-342v84h342c46 0 84-38 84-84v-342h-84z" />
<glyph unicode="&#xe3c2;" glyph-name="crop_free" d="M810 810.667c46 0 86-40 86-86v-170h-86v170h-170v86h170zM810 128.667v170h86v-170c0-46-40-86-86-86h-170v86h170zM214 298.667v-170h170v-86h-170c-46 0-86 40-86 86v170h86zM128 724.667c0 46 40 86 86 86h170v-86h-170v-170h-86v170z" />
<glyph unicode="&#xe3c6;" glyph-name="crop_square" d="M768 170.667v512h-512v-512h512zM768 768.667c46 0 86-40 86-86v-512c0-46-40-86-86-86h-512c-46 0-86 40-86 86v512c0 46 40 86 86 86h512z" />
<glyph unicode="&#xe3c7;" glyph-name="dehaze" d="M86 704.667h852v-86h-852v86zM86 490.667h852v-86h-852v86zM86 276.667h852v-84h-852v84z" />
<glyph unicode="&#xe3c8;" glyph-name="details" d="M272 682.667l240-426 240 426h-480zM128 768.667h768l-384-684z" />
<glyph unicode="&#xe3dd;" glyph-name="filter_drama" d="M810 170.667c70 0 128 58 128 128s-58 128-128 128h-64v22c0 130-104 234-234 234-76 0-144-36-188-94 108-30 188-130 188-248h-86c0 94-76 172-170 172s-170-78-170-172 76-170 170-170h554zM826 510.667c110-8 198-100 198-212 0-118-96-214-214-214h-554c-142 0-256 114-256 256 0 132 100 240 228 254 54 102 160 174 284 174 156 0 284-110 314-258z" />
<glyph unicode="&#xe3de;" glyph-name="filter_frames" d="M768 596.667h-512v-426h512zM854 84.667v598h-192l-148 150-150-150h-194v-598h684zM854 768.667c46 0 84-40 84-86v-598c0-46-38-84-84-84h-684c-46 0-84 38-84 84v598c0 46 38 86 84 86h172l170 170 170-170h172z" />
<glyph unicode="&#xe3e0;" glyph-name="filter_none" d="M896 212.667v598h-598v-598h598zM896 896.667c46 0 86-40 86-86v-598c0-46-40-84-86-84h-598c-46 0-84 38-84 84v598c0 46 38 86 84 86h598zM128 724.667v-682h682v-86h-682c-46 0-86 40-86 86v682h86z" />
<glyph unicode="&#xe3e2;" glyph-name="filter_tilt_shift" d="M242 96.667l60 60c48-36 106-60 168-68v-86c-86 8-164 42-228 94zM554 88.667c62 8 120 32 166 68l62-60c-64-52-142-86-228-94v86zM782 216.667c36 48 60 104 68 166h86c-8-86-42-162-94-226zM640 426.667c0-70-58-128-128-128s-128 58-128 128 58 128 128 128 128-58 128-128zM174 384.667c8-62 32-120 68-166l-60-62c-52 64-86 142-94 228h86zM242 636.667c-36-48-60-106-68-168h-86c8 86 42 164 94 228zM850 468.667c-8 62-32 120-68 168l60 60c52-64 86-142 94-228h-86zM782 756.667l-60-60c-48 36-106 60-168 68v86c86-8 164-42 228-94zM470 764.667c-62-8-120-32-168-68l-60 60c64 52 142 86 228 94v-86z" />
<glyph unicode="&#xe3e4;" glyph-name="flare" d="M470-43.333v256h84v-256h-84zM240 214.667l92 92 60-60-92-92zM632 246.667l60 60 92-92-60-60zM512 554.667c70 0 128-58 128-128s-58-128-128-128-128 58-128 128 58 128 128 128zM726 468.667h256v-84h-256v84zM784 638.667l-92-92-60 60 92 92zM554 896.667v-256h-84v256h84zM392 606.667l-60-60-92 92 60 60zM298 468.667v-84h-256v84h256z" />
<glyph unicode="&#xe3e5;" glyph-name="flash_auto" d="M718 612.667h100l-50 156zM810 852.667l138-384h-82l-30 86h-136l-30-86h-82l138 384h84zM128 852.667h426l-170-384h170l-298-512v384h-128v512z" />
<glyph unicode="&#xe3ec;" glyph-name="grid_on" d="M854 596.667v172h-172v-172h172zM854 340.667v172h-172v-172h172zM854 84.667v172h-172v-172h172zM598 596.667v172h-172v-172h172zM598 340.667v172h-172v-172h172zM598 84.667v172h-172v-172h172zM342 596.667v172h-172v-172h172zM342 340.667v172h-172v-172h172zM342 84.667v172h-172v-172h172zM854 852.667c46 0 84-38 84-84v-684c0-46-38-84-84-84h-684c-46 0-84 38-84 84v684c0 46 38 84 84 84h684z" />
<glyph unicode="&#xe3ee;" glyph-name="hdr_on" d="M554 362.667v128h-84v-128h84zM554 554.667c34 0 64-30 64-64v-128c0-34-30-64-64-64h-148v256h148zM278 468.667v86h64v-256h-64v106h-86v-106h-64v256h64v-86h86zM832 448.667v42h-86v-42h86zM896 448.667c0-26-16-48-38-60l38-90h-64l-38 86h-48v-86h-64v256h150c34 0 64-30 64-64v-42z" />
<glyph unicode="&#xe3f1;" glyph-name="hdr_strong" d="M214 340.667c46 0 84 40 84 86s-38 86-84 86-86-40-86-86 40-86 86-86zM214 596.667c94 0 170-76 170-170s-76-170-170-170-172 76-172 170 78 170 172 170zM726 682.667c142 0 256-114 256-256s-114-256-256-256-256 114-256 256 114 256 256 256z" />
<glyph unicode="&#xe3f2;" glyph-name="hdr_weak" d="M726 256.667c94 0 170 76 170 170s-76 170-170 170-172-76-172-170 78-170 172-170zM726 682.667c142 0 256-114 256-256s-114-256-256-256-256 114-256 256 114 256 256 256zM214 596.667c94 0 170-76 170-170s-76-170-170-170-172 76-172 170 78 170 172 170z" />
<glyph unicode="&#xe3fa;" glyph-name="lens" d="M512 852.667c236 0 426-190 426-426s-190-426-426-426-426 190-426 426 190 426 426 426z" />
<glyph unicode="&#xe408;" glyph-name="navigate_before" d="M658 622.667l-196-196 196-196-60-60-256 256 256 256z" />
<glyph unicode="&#xe409;" glyph-name="navigate_next" d="M426 682.667l256-256-256-256-60 60 196 196-196 196z" />
<glyph unicode="&#xe40a;" glyph-name="palette1" d="M746 426.667c36 0 64 28 64 64s-28 64-64 64-64-28-64-64 28-64 64-64zM618 596.667c36 0 64 28 64 64s-28 64-64 64-64-28-64-64 28-64 64-64zM406 596.667c36 0 64 28 64 64s-28 64-64 64-64-28-64-64 28-64 64-64zM278 426.667c36 0 64 28 64 64s-28 64-64 64-64-28-64-64 28-64 64-64zM512 810.667c212 0 384-154 384-342 0-118-96-212-214-212h-74c-36 0-64-28-64-64 0-16 6-30 16-42s16-28 16-44c0-36-28-64-64-64-212 0-384 172-384 384s172 384 384 384z" />
<glyph unicode="&#xe410;" glyph-name="photo" d="M362 362.667l-148-192h596l-192 256-148-192zM896 128.667c0-46-40-86-86-86h-596c-46 0-86 40-86 86v596c0 46 40 86 86 86h596c46 0 86-40 86-86v-596z" />
<glyph unicode="&#xe412;" glyph-name="photo_camera" d="M512 212.667c118 0 214 96 214 214s-96 214-214 214-214-96-214-214 96-214 214-214zM384 852.667h256l78-84h136c46 0 84-40 84-86v-512c0-46-38-86-84-86h-684c-46 0-84 40-84 86v512c0 46 38 86 84 86h136zM376 426.667c0 76 60 136 136 136s136-60 136-136-60-136-136-136-136 60-136 136z" />
<glyph unicode="&#xe416;" glyph-name="portrait" d="M810 128.667v596h-596v-596h596zM810 810.667c46 0 86-40 86-86v-596c0-46-40-86-86-86h-596c-46 0-86 40-86 86v596c0 46 40 86 86 86h596zM704 244.667v-32h-384v32c0 64 128 96 192 96s192-32 192-96zM512 416.667c-52 0-96 44-96 96s44 96 96 96 96-44 96-96-44-96-96-96z" />
<glyph unicode="&#xe418;" glyph-name="rotate_90_degrees_ccw" d="M826 654.667c150-150 150-392 0-542-74-76-174-112-272-112-64 0-126 16-184 48l64 62c38-18 78-26 120-26 76 0 154 30 212 88 116 116 116 306 0 422-58 58-136 88-212 88v-138l-180 180 180 182v-138c98 0 198-38 272-114zM158 388.667l156-156 156 156-156 156zM314 664.667l276-276-276-276-278 276z" />
<glyph unicode="&#xe419;" glyph-name="rotate_left" d="M554 764.667c168-20 300-164 300-338s-132-318-300-338v86c122 20 214 126 214 252s-92 232-214 252v-166l-194 190 194 194v-132zM302 156.667l62 62c32-24 68-38 106-44v-86c-60 8-118 30-168 68zM260 384.667c6-38 20-74 42-106l-60-60c-38 50-60 106-68 166h86zM304 574.667c-22-32-38-68-44-106h-86c8 60 32 116 70 166z" />
<glyph unicode="&#xe41a;" glyph-name="rotate_right" d="M720 278.667c24 32 38 68 44 106h86c-8-60-30-116-68-166zM554 174.667c38 6 74 20 106 44l62-62c-50-38-108-60-168-68v86zM850 468.667h-86c-6 38-20 74-44 106l62 60c38-50 60-106 68-166zM664 702.667l-194-190v166c-122-20-214-126-214-252s92-232 214-252v-86c-168 20-300 164-300 338s132 318 300 338v132z" />
<glyph unicode="&#xe41b;" glyph-name="slideshow" d="M810 128.667v596h-596v-596h596zM810 810.667c46 0 86-40 86-86v-596c0-46-40-86-86-86h-596c-46 0-86 40-86 86v596c0 46 40 86 86 86h596zM426 596.667l214-170-214-170v340z" />
<glyph unicode="&#xe41d;" glyph-name="style" d="M250 96.667v270l148-356h-62c-46 0-86 40-86 86zM336 564.667c24 0 42 20 42 44s-18 42-42 42-42-18-42-42 18-44 42-44zM940 258.667c18-44-2-94-46-112l-314-130c-10-4-22-6-34-6-34 0-64 20-78 52l-212 512c-4 12-6 22-6 34 0 32 20 62 52 76l316 130c12 4 22 6 34 6 32 0 62-20 76-52zM108 100.667c-44 18-64 66-46 110l104 250v-384z" />
<glyph unicode="&#xe421;" glyph-name="texture" d="M396 42.667l500 500v-122l-378-378h-122zM896 128.667c0-45.948-40.071-86-86-86h-84l170 170v-84zM214 810.667h84l-170-170v84c0 46 40 86 86 86zM506 810.667h122l-500-500v122zM832 806.667c30-8 54-30 62-60l-702-700c-29.35 8.386-51.612 30.641-60 60z" />
<glyph unicode="&#xe422;" glyph-name="timelapse" d="M512 84.667c188 0 342 154 342 342s-154 342-342 342-342-154-342-342 154-342 342-342zM512 852.667c236 0 426-190 426-426s-190-426-426-426-426 190-426 426 190 426 426 426zM692 606.667c100-100 102-260 2-360s-262-100-362 0l180 180v256c66 0 130-26 180-76z" />
<glyph unicode="&#xe425;" glyph-name="timer" d="M512 84.667c166 0 298 134 298 300s-132 298-298 298-298-132-298-298 132-300 298-300zM812 622.667c52-66 84-148 84-238 0-212-172-384-384-384s-384 172-384 384 172 384 384 384c90 0 174-34 240-86l60 62c22-18 42-38 60-60zM470 340.667v256h84v-256h-84zM640 896.667v-86h-256v86h256z" />
<glyph unicode="&#xe427;" glyph-name="tonality" d="M842 340.667c4 14 6 30 8 44h-296v-44h288zM778 212.667c10 14 22 30 30 44h-254v-44h224zM554 88.667c44 6 86 20 124 40h-124v-40zM554 512.667v-44h296c-2 14-4 30-8 44h-288zM554 640.667v-44h254c-8 14-20 30-30 44h-224zM554 764.667v-40h124c-38 20-80 34-124 40zM470 88.667v676c-168-20-300-164-300-338s132-318 300-338zM512 852.667c236 0 426-190 426-426s-190-426-426-426-426 190-426 426 190 426 426 426z" />
<glyph unicode="&#xe42a;" glyph-name="view_comfy" d="M768 724.667h170v-170h-170v170zM768 128.667v170h170v-170h-170zM554 128.667v170h172v-170h-172zM342 128.667v170h170v-170h-170zM128 128.667v170h170v-170h-170zM768 340.667v172h170v-172h-170zM554 724.667h172v-170h-172v170zM342 554.667v170h170v-170h-170zM554 340.667v172h172v-172h-172zM342 340.667v172h170v-172h-170zM128 340.667v172h170v-172h-170zM128 554.667v170h170v-170h-170z" />
<glyph unicode="&#xe42b;" glyph-name="view_compact" d="M128 724.667h810v-256h-810v256zM426 128.667v298h512v-298h-512zM128 128.667v298h256v-298h-256z" />
<glyph unicode="&#xe42d;" glyph-name="wb_cloudy" d="M826 510.667c110-8 198-100 198-212 0-118-96-214-214-214h-554c-142 0-256 114-256 256 0 132 100 240 228 254 54 102 160 174 284 174 156 0 284-110 314-258z" />
<glyph unicode="&#xe42e;" glyph-name="wb_incandescent" d="M736 164.667l60 58 76-76-60-60zM854 490.667h128v-86h-128v86zM640 668.667c76-44 128-126 128-220 0-142-114-256-256-256s-256 114-256 256c0 94 52 176 128 220v206h256v-206zM170 490.667v-86h-128v86h128zM470-19.333v126h84v-126h-84zM152 146.667l76 78 60-60-76-78z" />
<glyph unicode="&#xe430;" glyph-name="wb_sunny" d="M152 146.667l76 78 60-60-76-78zM470-19.333v126h84v-126h-84zM512 704.667c142 0 256-114 256-256s-114-256-256-256-256 114-256 256 114 256 256 256zM854 490.667h128v-86h-128v86zM736 164.667l60 58 76-76-60-60zM872 748.667l-76-76-60 60 76 76zM554 914.667v-126h-84v126h84zM170 490.667v-86h-128v86h128zM288 732.667l-60-60-76 76 60 60z" />
<glyph unicode="&#xe432;" glyph-name="photo_size_select_actual" d="M214 212.667h596l-192 256-148-192-108 128zM896 810.667c42 0 86-44 86-86v-596c0-42-44-86-86-86h-768c-46 0-86 40-86 86v596c0 42 44 86 86 86h768z" />
<glyph unicode="&#xe436;" glyph-name="wb_iridescent" d="M212 86.667l-60 62 76 76 60-60zM152 748.667l60 60 76-76-60-60zM872 146.667l-60-60-76 78 60 60zM554-19.333h-84v126h84v-126zM812 808.667l60-60-76-76-60 60zM470 914.667h84v-126h-84v126zM214 320.667v256h596v-256h-596z" />
<glyph unicode="&#xe438;" glyph-name="linked_camera" d="M682 682.667c48 0 86-38 86-86h56c0 78-64 142-142 142v-56zM512 128.667c118 0 214 94 214 212s-96 214-214 214-214-96-214-214 96-212 214-212zM726 554.667h212v-470c0-46-38-84-84-84h-684c-46 0-84 38-84 84v512c0 46 38 86 84 86h136l78 86h256v-128c48 0 86-38 86-86zM682 796.667v56c142 0 256-114 256-256h-56c0 110-90 200-200 200zM376 340.667c0 76 60 138 136 138s136-62 136-138-60-136-136-136-136 60-136 136z" />
<glyph unicode="&#xe439;" glyph-name="add_a_photo" d="M418 340.667c0 76 60 138 136 138s138-62 138-138-62-136-138-136-136 60-136 136zM554 128.667c118 0 214 94 214 212s-96 214-214 214-212-96-212-214 94-212 212-212zM256 512.667v128h128v128h298l78-86h136c46 0 86-40 86-86v-512c0-46-40-84-86-84h-682c-46 0-86 38-86 84v428h128zM128 768.667v128h86v-128h128v-86h-128v-128h-86v128h-128v86h128z" />
<glyph unicode="&#xe43c;" glyph-name="burst_mode" d="M470 212.667h426l-136 180-108-136-76 92zM938 724.667c24 0 44-18 44-42v-512c0-24-20-42-44-42h-512c-24 0-42 18-42 42v512c0 24 18 42 42 42h512zM214 724.667h84v-596h-84v596zM42 724.667h86v-596h-86v596z" />
<glyph unicode="&#xe52d;" glyph-name="beenhere" d="M426 256.667l384 384-60 60-324-324-152 152-60-60zM810 896.667c46 0 86-40 86-86v-552c0-30-16-54-38-70l-346-232-346 232c-22 16-38 40-38 70v552c0 46 40 86 86 86h596z" />
<glyph unicode="&#xe52e;" glyph-name="directions" d="M598 320.667l148 148-148 150v-106h-214c-24 0-42-20-42-44v-170h84v128h172v-106zM926 456.667c16-18 16-44 0-60l-384-384c-16-16-44-16-60 0l-384 384c-16 16-16 44 0 60l384 384c16 16 44 16 60 0z" />
<glyph unicode="&#xe530;" glyph-name="directions_bus" d="M768 468.667v214h-512v-214h512zM704 212.667c36 0 64 28 64 64s-28 64-64 64-64-28-64-64 28-64 64-64zM320 212.667c36 0 64 28 64 64s-28 64-64 64-64-28-64-64 28-64 64-64zM170 256.667v426c0 150 154 170 342 170s342-20 342-170v-426c0-38-18-72-44-96v-76c0-24-18-42-42-42h-42c-24 0-44 18-44 42v44h-340v-44c0-24-20-42-44-42h-42c-24 0-42 18-42 42v76c-26 24-44 58-44 96z" />
<glyph unicode="&#xe531;" glyph-name="directions_car" d="M214 468.667h596l-64 192h-468zM746 256.667c36 0 64 28 64 64s-28 64-64 64-64-28-64-64 28-64 64-64zM278 256.667c36 0 64 28 64 64s-28 64-64 64-64-28-64-64 28-64 64-64zM808 682.667l88-256v-342c0-24-18-42-42-42h-44c-24 0-42 18-42 42v44h-512v-44c0-24-18-42-42-42h-44c-24 0-42 18-42 42v342l88 256c8 26 34 42 62 42h468c28 0 54-16 62-42z" />
<glyph unicode="&#xe532;" glyph-name="directions_boat" d="M256 682.667v-170l256 84 256-84v170h-512zM168 128.667l-80 284c-9.564 28.693 7.98 47.327 28 54l54 18v198c0 46 40 86 86 86h128v128h256v-128h128c46 0 86-40 86-86v-198l54-18c20.040-6.68 37.574-25.277 28-54l-80-284h-2c-68 0-130 36-172 84-42-48-102-84-170-84s-128 36-170 84c-42-48-104-84-172-84h-2zM854 42.667h84v-86h-84c-58 0-118 14-172 42-108-56-232-56-340 0-54-28-114-42-172-42h-84v86h84c60 0 120 20 172 56 104-72 236-72 340 0 52-36 112-56 172-56z" />
<glyph unicode="&#xe534;" glyph-name="directions_railway" d="M768 512.667v212h-512v-212h512zM512 212.667c46 0 86 40 86 86s-40 86-86 86-86-40-86-86 40-86 86-86zM170 276.667v448c0 150 154 172 342 172s342-22 342-172v-448c0-82-68-148-150-148l64-64v-22h-512v22l64 64c-82 0-150 66-150 148z" />
<glyph unicode="&#xe535;" glyph-name="directions_transit" d="M768 468.667v214h-214v-214h214zM704 212.667c36 0 64 28 64 64s-28 64-64 64-64-28-64-64 28-64 64-64zM470 468.667v214h-214v-214h214zM320 212.667c36 0 64 28 64 64s-28 64-64 64-64-28-64-64 28-64 64-64zM512 852.667c188 0 342-20 342-170v-406c0-82-68-148-150-148l64-64v-22h-512v22l64 64c-82 0-150 66-150 148v406c0 150 154 170 342 170z" />
<glyph unicode="&#xe53b;" glyph-name="layers1" d="M512 256.667c-128.024 99.309-255.626 199.040-384 298l384 298 384-298c-128.375-98.958-255.974-198.693-384-298zM512 146.667l314 246 70-54-384-298-384 298 70 54z" />
<glyph unicode="&#xe53d;" glyph-name="local_airport" d="M896 256.667l-342 106v-234l86-64v-64l-150 42-148-42v64l84 64v234l-340-106v84l340 214v234c0 36 28 64 64 64s64-28 64-64v-234l342-214v-84z" />
<glyph unicode="&#xe53e;" glyph-name="local_atm" d="M854 170.667v512h-684v-512h684zM854 768.667c48 0 84-38 84-86v-512c0-48-36-86-84-86h-684c-48 0-84 38-84 86v512c0 48 36 86 84 86h684zM470 212.667v44h-86v84h170v44h-128c-24 0-42 18-42 42v128c0 24 18 42 42 42h44v44h84v-44h86v-84h-170v-44h128c24 0 42-18 42-42v-128c0-24-18-42-42-42h-44v-44h-84z" />
<glyph unicode="&#xe540;" glyph-name="local_bar" d="M318 640.667h388l76 84h-540zM896 724.667l-342-384v-212h214v-86h-512v86h214v212l-342 384v86h768v-86z" />
<glyph unicode="&#xe542;" glyph-name="local_car_wash" d="M214 384.667h596l-64 192h-468zM746 170.667c36 0 64 28 64 64s-28 64-64 64-64-28-64-64 28-64 64-64zM278 170.667c36 0 64 28 64 64s-28 64-64 64-64-28-64-64 28-64 64-64zM808 596.667l88-256v-340c0-24-18-44-42-44h-44c-24 0-42 20-42 44v42h-512v-42c0-24-18-44-42-44h-44c-24 0-42 20-42 44v340l88 256c8 26 34 44 62 44h468c28 0 54-18 62-44zM298 724.667c-36 0-64 28-64 64 0 42 64 116 64 116s64-74 64-116c0-36-28-64-64-64zM512 724.667c-36 0-64 28-64 64 0 42 64 116 64 116s64-74 64-116c0-36-28-64-64-64zM726 724.667c-36 0-64 28-64 64 0 42 64 116 64 116s64-74 64-116c0-36-28-64-64-64z" />
<glyph unicode="&#xe544;" glyph-name="local_drink" d="M782 596.667l18 172h-576l18-172h540zM512 128.667c70 0 128 58 128 128 0 86-128 230-128 230s-128-144-128-230c0-70 58-128 128-128zM128 852.667h768l-86-778c-6-42-40-74-84-74h-428c-44 0-78 32-84 74z" />
<glyph unicode="&#xe548;" glyph-name="local_hospital" d="M768 340.667v172h-170v170h-172v-170h-170v-172h170v-170h172v170h170zM810 810.667c46 0 86-40 86-86v-596c0-46-40-86-86-86h-596c-46 0-86 40-86 86v596c0 46 40 86 86 86h596z" />
<glyph unicode="&#xe54b;" glyph-name="local_library" d="M512 596.667c-70 0-128 58-128 128s58 128 128 128 128-58 128-128-58-128-128-128zM512 446.667c100 94 236 150 384 150v-468c-148 0-284-58-384-152-100 94-236 152-384 152v468c148 0 284-56 384-150z" />
<glyph unicode="&#xe54c;" glyph-name="local_mall" d="M512 384.667c118 0 214 94 214 212h-86c0-70-58-128-128-128s-128 58-128 128h-86c0-118 96-212 214-212zM512 810.667c-70 0-128-58-128-128h256c0 70-58 128-128 128zM810 682.667c46 0 86-40 86-86v-512c0-46-40-84-86-84h-596c-46 0-86 38-86 84v512c0 46 40 86 86 86h84c0 118 96 214 214 214s214-96 214-214h84z" />
<glyph unicode="&#xe54e;" glyph-name="local_offer" d="M234 640.667c36 0 64 28 64 64s-28 64-64 64-64-28-64-64 28-64 64-64zM914 444.667c16-16 24-36 24-60s-8-44-24-60l-300-300c-16-16-36-24-60-24s-44 8-60 24l-384 384c-16 16-24 36-24 60v300c0 46 38 84 84 84h300c24 0 44-8 60-24z" />
<glyph unicode="&#xe552;" glyph-name="local_pizza" d="M512 298.667c46 0 86 40 86 86s-40 84-86 84-86-38-86-84 40-86 86-86zM298 640.667c0-46 40-86 86-86s86 40 86 86-40 84-86 84-86-38-86-84zM512 852.667c152 0 290-66 384-170l-384-682-384 682c94 104 232 170 384 170z" />
<glyph unicode="&#xe553;" glyph-name="local_play" d="M664 222.667l-46 174 140 116-180 10-66 168-66-168-182-10 142-116-46-174 152 98zM854 426.667c0-46 38-86 84-86v-170c0-46-38-86-84-86h-684c-46 0-84 40-84 86v170c48 0 84 40 84 86s-38 86-84 86v170c0 46 38 86 84 86h684c46 0 84-40 84-86v-170c-46 0-84-40-84-86z" />
<glyph unicode="&#xe558;" glyph-name="local_shipping" d="M768 148.667c36 0 64 28 64 64s-28 64-64 64-64-28-64-64 28-64 64-64zM832 532.667h-106v-106h190zM256 148.667c36 0 64 28 64 64s-28 64-64 64-64-28-64-64 28-64 64-64zM854 596.667l128-170v-214h-86c0-70-58-128-128-128s-128 58-128 128h-256c0-70-58-128-128-128s-128 58-128 128h-86v470c0 46 40 86 86 86h598v-172h128z" />
<glyph unicode="&#xe559;" glyph-name="local_taxi" d="M214 468.667h596l-64 192h-468zM746 256.667c36 0 64 28 64 64s-28 64-64 64-64-28-64-64 28-64 64-64zM278 256.667c36 0 64 28 64 64s-28 64-64 64-64-28-64-64 28-64 64-64zM808 682.667l88-256v-342c0-24-18-42-42-42h-44c-24 0-42 18-42 42v44h-512v-44c0-24-18-42-42-42h-44c-24 0-42 18-42 42v342l88 256c8 26 34 42 62 42h106v86h256v-86h106c28 0 54-16 62-42z" />
<glyph unicode="&#xe55a;" glyph-name="person_pin" d="M768 256.667v38c0 86-170 132-256 132s-256-46-256-132v-38h512zM512 712.667c-64 0-116-52-116-116s52-114 116-114 116 50 116 114-52 116-116 116zM810 852.667c46 0 86-38 86-84v-598c0-46-40-86-86-86h-170l-128-128-128 128h-170c-48 0-86 40-86 86v598c0 46 38 84 86 84h596z" />
<glyph unicode="&#xe55b;" glyph-name="map1" d="M640 128.667v506l-256 90v-506zM874 810.667c12 0 22-10 22-22v-644c0-10-8-18-16-20l-240-82-256 90-228-88-6-2c-12 0-22 10-22 22v644c0 10 8 18 16 20l240 82 256-90 228 88z" />
<glyph unicode="&#xe55c;" glyph-name="my_location" d="M512 128.667c166 0 298 132 298 298s-132 298-298 298-298-132-298-298 132-298 298-298zM894 468.667h88v-84h-88c-20-178-162-320-340-340v-88h-84v88c-178 20-320 162-340 340h-88v84h88c20 178 162 320 340 340v88h84v-88c178-20 320-162 340-340zM512 596.667c94 0 170-76 170-170s-76-170-170-170-170 76-170 170 76 170 170 170z" />
<glyph unicode="&#xe55d;" glyph-name="navigation" d="M512 852.667l320-780-30-30-290 128-290-128-30 30z" />
<glyph unicode="&#xe55e;" glyph-name="pin_drop" d="M214 84.667h596v-84h-596v84zM426 596.667c0-46 40-84 86-84 48 0 86 38 86 84s-40 86-86 86-86-40-86-86zM768 596.667c0-192-256-468-256-468s-256 276-256 468c0 142 114 256 256 256s256-114 256-256z" />
<glyph unicode="&#xe560;" glyph-name="rate_review" d="M768 340.667v86h-234l-86-86h320zM256 340.667h106l294 294c8 8 8 22 0 30l-76 76c-8 8-22 8-30 0l-294-294v-106zM854 852.667c46 0 84-38 84-84v-512c0-46-38-86-84-86h-598l-170-170v768c0 46 38 84 84 84h684z" />
<glyph unicode="&#xe563;" glyph-name="store_mall_directory" d="M512 170.667v170h-256v-170h256zM896 340.667h-42v-256h-86v256h-170v-256h-428v256h-42v86l42 214h684l42-214v-86zM854 768.667v-86h-684v86h684z" />
<glyph unicode="&#xe564;" glyph-name="terrain" d="M598 682.667l384-512h-940l256 342 192-256 68 50-120 162z" />
<glyph unicode="&#xe569;" glyph-name="near_me" d="M896 810.667l-322-768h-42l-112 292-292 112v42z" />
<glyph unicode="&#xe56b;" glyph-name="zoom_out_map" d="M896 298.667v-256h-256l98 98-124 122 62 62 122-124zM384 42.667h-256v256l98-98 122 124 62-62-124-122zM128 554.667v256h256l-98-98 124-122-62-62-122 124zM640 810.667h256v-256l-98 98-122-124-62 62 124 122z" />
<glyph unicode="&#xe5c3;" glyph-name="apps" d="M682 84.667v172h172v-172h-172zM682 340.667v172h172v-172h-172zM426 596.667v172h172v-172h-172zM682 768.667h172v-172h-172v172zM426 340.667v172h172v-172h-172zM170 340.667v172h172v-172h-172zM170 84.667v172h172v-172h-172zM426 84.667v172h172v-172h-172zM170 596.667v172h172v-172h-172z" />
<glyph unicode="&#xe5c4;" glyph-name="arrow_back" d="M854 468.667v-84h-520l238-240-60-60-342 342 342 342 60-60-238-240h520z" />
<glyph unicode="&#xe5c5;" glyph-name="arrow_drop_down" d="M298 512.667h428l-214-214z" />
<glyph unicode="&#xe5c7;" glyph-name="arrow_drop_up" d="M298 340.667l214 214 214-214h-428z" />
<glyph unicode="&#xe5c8;" glyph-name="arrow_forward" d="M512 768.667l342-342-342-342-60 60 238 240h-520v84h520l-238 240z" />
<glyph unicode="&#xe5c9;" glyph-name="cancel" d="M726 272.667l-154 154 154 154-60 60-154-154-154 154-60-60 154-154-154-154 60-60 154 154 154-154zM512 852.667c236 0 426-190 426-426s-190-426-426-426-426 190-426 426 190 426 426 426z" />
<glyph unicode="&#xe5ca;" glyph-name="check1" d="M384 248.667l452 452 60-60-512-512-238 238 60 60z" />
<glyph unicode="&#xe5cd;" glyph-name="close" d="M810 664.667l-238-238 238-238-60-60-238 238-238-238-60 60 238 238-238 238 60 60 238-238 238 238z" />
<glyph unicode="&#xe5ce;" glyph-name="expand_less" d="M512 596.667l256-256-60-60-196 196-196-196-60 60z" />
<glyph unicode="&#xe5cf;" glyph-name="expand_more" d="M708 572.667l60-60-256-256-256 256 60 60 196-196z" />
<glyph unicode="&#xe5d0;" glyph-name="fullscreen" d="M598 724.667h212v-212h-84v128h-128v84zM726 212.667v128h84v-212h-212v84h128zM214 512.667v212h212v-84h-128v-128h-84zM298 340.667v-128h128v-84h-212v212h84z" />
<glyph unicode="&#xe5d1;" glyph-name="fullscreen_exit" d="M682 596.667h128v-84h-212v212h84v-128zM598 128.667v212h212v-84h-128v-128h-84zM342 596.667v128h84v-212h-212v84h128zM214 256.667v84h212v-212h-84v128h-128z" />
<glyph unicode="&#xe5d2;" glyph-name="menu" d="M128 682.667h768v-86h-768v86zM128 384.667v84h768v-84h-768zM128 170.667v86h768v-86h-768z" />
<glyph unicode="&#xe5d3;" glyph-name="more_horiz" d="M512 512.667c46 0 86-40 86-86s-40-86-86-86-86 40-86 86 40 86 86 86zM768 512.667c46 0 86-40 86-86s-40-86-86-86-86 40-86 86 40 86 86 86zM256 512.667c46 0 86-40 86-86s-40-86-86-86-86 40-86 86 40 86 86 86z" />
<glyph unicode="&#xe5d4;" glyph-name="more_vert" d="M512 256.667c46 0 86-40 86-86s-40-86-86-86-86 40-86 86 40 86 86 86zM512 512.667c46 0 86-40 86-86s-40-86-86-86-86 40-86 86 40 86 86 86zM512 596.667c-46 0-86 40-86 86s40 86 86 86 86-40 86-86-40-86-86-86z" />
<glyph unicode="&#xe5d5;" glyph-name="refresh" d="M754 668.667l100 100v-300h-300l138 138c-46 46-110 76-180 76-142 0-256-114-256-256s114-256 256-256c112 0 208 70 242 170h88c-38-148-170-256-330-256-188 0-340 154-340 342s152 342 340 342c94 0 180-38 242-100z" />
<glyph unicode="&#xe5d6;" glyph-name="unfold_less" d="M708 708.667l-196-196-196 196 60 60 136-136 136 136zM316 144.667l196 196 196-196-60-60-136 136-136-136z" />
<glyph unicode="&#xe5d7;" glyph-name="unfold_more" d="M512 162.667l136 136 60-60-196-196-196 196 60 60zM512 690.667l-136-136-60 60 196 196 196-196-60-60z" />
<glyph unicode="&#xe5d8;" glyph-name="arrow_upward" d="M170 426.667l342 342 342-342-62-60-238 238v-520h-84v520l-240-238z" />
<glyph unicode="&#xe5d9;" glyph-name="subdirectory_arrow_left" d="M470 554.667l60-60-154-154h392v428h86v-512h-478l154-154-60-60-256 256z" />
<glyph unicode="&#xe5da;" glyph-name="subdirectory_arrow_right" d="M810 298.667l-256-256-60 60 154 154h-478v512h86v-428h392l-154 154 60 60z" />
<glyph unicode="&#xe5db;" glyph-name="arrow_downward" d="M854 426.667l-342-342-342 342 62 60 238-238v520h84v-520l240 238z" />
<glyph unicode="&#xe5dc;" glyph-name="first_page" d="M256 682.667h86v-512h-86v512zM786 230.667l-60-60-256 256 256 256 60-60-196-196z" />
<glyph unicode="&#xe5dd;" glyph-name="last_page" d="M682 682.667h86v-512h-86v512zM238 622.667l60 60 256-256-256-256-60 60 196 196z" />
<glyph unicode="&#xe610;" glyph-name="disc_full" d="M426 340.667c46 0 86 40 86 86s-40 86-86 86-84-40-84-86 38-86 84-86zM426 768.667c188 0 342-154 342-342s-154-342-342-342-340 154-340 342 152 342 340 342zM854 640.667h84v-214h-84v214zM854 256.667v84h84v-84h-84z" />
<glyph unicode="&#xe611;" glyph-name="do_not_disturb_alt" d="M512 84.667c188 0 342 154 342 342 0 76-28 150-74 210l-478-478c60-46 134-74 210-74zM170 426.667c0-76 28-150 74-210l478 478c-60 46-134 74-210 74-188 0-342-154-342-342zM512 852.667c234 0 426-192 426-426s-192-426-426-426-426 192-426 426 192 426 426 426z" />
<glyph unicode="&#xe614;" glyph-name="event_available" d="M810 128.667v468h-596v-468h596zM810 810.667c46 0 86-40 86-86v-596c0-46-40-86-86-86h-596c-48 0-86 40-86 86v596c0 46 38 86 86 86h42v86h86v-86h340v86h86v-86h42zM706 466.667l-254-254-136 136 46 46 90-90 208 208z" />
<glyph unicode="&#xe616;" glyph-name="event_note" d="M598 340.667v-84h-300v84h300zM810 128.667v468h-596v-468h596zM810 810.667c46 0 86-40 86-86v-596c0-46-40-86-86-86h-596c-48 0-86 40-86 86v596c0 46 38 86 86 86h42v86h86v-86h340v86h86v-86h42zM726 512.667v-86h-428v86h428z" />
<glyph unicode="&#xe617;" glyph-name="folder_special" d="M766 212.667l-34 142 110 96-144 12-58 134-58-134-144-12 110-96-34-142 126 74zM854 682.667c46 0 84-40 84-86v-426c0-46-38-86-84-86h-684c-46 0-84 40-84 86v512c0 46 38 86 84 86h256l86-86h342z" />
<glyph unicode="&#xe61a;" glyph-name="network_locked" d="M896 256.667v64c0 36-28 64-64 64s-64-28-64-64v-64h128zM938 256.667c24 0 44-20 44-44v-170c0-24-20-42-44-42h-212c-24 0-44 18-44 42v170c0 24 20 44 44 44v64c0 58 48 106 106 106s106-48 106-106v-64zM832 512.667c-106 0-192-86-192-192v-12c-26-24-42-58-42-96v-128h-556l812 812v-386c-8 0-14 2-22 2z" />
<glyph unicode="&#xe61d;" glyph-name="phone_in_talk" d="M640 426.667c0 70-58 128-128 128v86c118 0 214-96 214-214h-86zM810 426.667c0 166-132 298-298 298v86c212 0 384-172 384-384h-86zM854 276.667c24 0 42-18 42-42v-150c0-24-18-42-42-42-400 0-726 326-726 726 0 24 18 42 42 42h150c24 0 42-18 42-42 0-54 8-104 24-152 4-14 2-32-10-44l-94-94c62-122 162-220 282-282l94 94c12 12 30 14 44 10 48-16 98-24 152-24z" />
<glyph unicode="&#xe61e;" glyph-name="phone_locked" d="M820 768.667v20c0 40-34 74-74 74s-72-34-72-74v-20h146zM854 768.667c24 0 42-20 42-44v-170c0-24-18-42-42-42h-214c-24 0-42 18-42 42v170c0 24 18 44 42 44v20c0 58 48 108 106 108s108-50 108-108v-20zM854 276.667c24 0 42-18 42-42v-150c0-24-18-42-42-42-400 0-726 326-726 726 0 24 18 42 42 42h150c24 0 42-18 42-42 0-54 8-104 24-152 4-14 2-32-10-44l-94-94c62-122 162-220 282-282l94 94c12 12 30 14 44 10 48-16 98-24 152-24z" />
<glyph unicode="&#xe61f;" glyph-name="phone_missed" d="M1012 226.667c8-8 12-18 12-30s-4-22-12-30l-106-106c-8-8-18-12-30-12s-22 4-30 12c-34 32-72 60-114 80-14 6-24 22-24 38v132c-62 20-128 30-196 30s-134-10-196-30v-132c0-18-10-34-24-40-42-20-80-46-114-78-8-8-18-12-30-12s-22 4-30 12l-106 106c-8 8-12 18-12 30s4 22 12 30c130 124 306 200 500 200s370-76 500-200zM278 704.667v-150h-64v256h256v-64h-150l192-192 256 256 42-42-298-300z" />
<glyph unicode="&#xe620;" glyph-name="phone_paused" d="M810 810.667h86v-298h-86v298zM854 276.667c24 0 42-18 42-42v-150c0-24-18-42-42-42-400 0-726 326-726 726 0 24 18 42 42 42h150c24 0 42-18 42-42 0-54 8-104 24-152 4-14 2-32-10-44l-94-94c62-122 162-220 282-282l94 94c12 12 30 14 44 10 48-16 98-24 152-24zM726 810.667v-298h-86v298h86z" />
<glyph unicode="&#xe627;" glyph-name="sync" d="M512 170.667v128l170-170-170-172v128c-188 0-342 154-342 342 0 66 20 130 54 182l62-62c-20-36-30-76-30-120 0-142 114-256 256-256zM512 768.667c188 0 342-154 342-342 0-66-20-130-54-182l-62 62c20 36 30 76 30 120 0 142-114 256-256 256v-128l-170 170 170 172v-128z" />
<glyph unicode="&#xe629;" glyph-name="sync_problem" d="M470 384.667v256h84v-256h-84zM896 768.667l-100-102c62-62 100-146 100-240 0-160-108-292-256-330v88c100 34 170 130 170 242 0 70-28 134-74 180l-96-94v256h256zM470 212.667v86h84v-86h-84zM128 426.667c0 160 108 292 256 330v-88c-100-34-170-130-170-242 0-70 28-134 74-180l96 94v-256h-256l100 102c-62 62-100 146-100 240z" />
<glyph unicode="&#xe62c;" glyph-name="time_to_leave" d="M214 512.667h596l-64 192h-468zM746 298.667c36 0 64 28 64 64s-28 64-64 64-64-28-64-64 28-64 64-64zM278 298.667c36 0 64 28 64 64s-28 64-64 64-64-28-64-64 28-64 64-64zM808 724.667l88-256v-340c0-24-18-44-42-44h-44c-24 0-42 20-42 44v42h-512v-42c0-24-18-44-42-44h-44c-24 0-42 20-42 44v340l88 256c8 26 34 44 62 44h468c28 0 54-18 62-44z" />
<glyph unicode="&#xe62d;" glyph-name="vibration" d="M682 128.667v596h-340v-596h340zM704 810.667c36 0 64-28 64-64v-640c0-36-28-64-64-64h-384c-36 0-64 28-64 64v640c0 36 28 64 64 64h384zM810 212.667v428h86v-428h-86zM938 554.667h86v-256h-86v256zM128 212.667v428h86v-428h-86zM0 298.667v256h86v-256h-86z" />
<glyph unicode="&#xe62f;" glyph-name="vpn_lock" d="M426 44.667v84c-46 0-84 38-84 84v44l-206 204c-6-24-8-50-8-76 0-174 130-320 298-340zM808 426.667h86c2-14 2-28 2-42 0-236-190-428-426-428s-428 192-428 428 192 426 428 426c44 0 88-8 128-20v-108c0-46-40-86-86-86h-86v-84c0-24-18-44-42-44h-86v-84h256c24 0 44-20 44-44v-128h42c38 0 70-24 82-58 56 60 88 142 88 230 0 14 0 28-2 42zM904 768.667v20c0 40-32 74-72 74s-72-34-72-74v-20h144zM938 768.667c24 0 44-20 44-44v-170c0-24-20-42-44-42h-212c-24 0-44 18-44 42v170c0 24 20 44 44 44v20c0 58 48 108 106 108s106-50 106-108v-20z" />
<glyph unicode="&#xe638;" glyph-name="confirmation_number" d="M554 576.667v84h-84v-84h84zM554 384.667v84h-84v-84h84zM554 192.667v84h-84v-84h84zM938 512.667c-46 0-84-40-84-86s38-86 84-86v-170c0-46-38-86-84-86h-684c-46 0-84 40-84 86v170c48 0 84 40 84 86s-38 86-84 86v170c0 48 38 86 84 86h684c46 0 84-38 84-86v-170z" />
<glyph unicode="&#xe63c;" glyph-name="power" d="M684 640.667c42 0 84-44 84-86v-234l-150-150v-128h-212v128l-150 150v234c0 42 42 86 84 86h2v170h84v-170h172v170h84z" />
<glyph unicode="&#xe63d;" glyph-name="wc" d="M704 682.667c-48 0-86 38-86 86s38 84 86 84 86-36 86-84-38-86-86-86zM320 682.667c-48 0-86 38-86 86s38 84 86 84 86-36 86-84-38-86-86-86zM768 0.667h-128v256h-128l108 324c12 34 46 60 82 60h4c36 0 70-26 82-60l108-324h-128v-256zM234 0.667v320h-64v234c0 46 40 86 86 86h128c46 0 86-40 86-86v-234h-64v-320h-172z" />
<glyph unicode="&#xe63e;" glyph-name="wifi" d="M214 384.667c166 164 432 164 596 0l-84-86c-118 118-310 118-428 0zM384 212.667c70 70 186 70 256 0l-128-128zM42 554.667c260 258 682 258 940 0l-86-86c-212 212-556 212-768 0z" />
<glyph unicode="&#xe643;" glyph-name="do_not_disturb_off" d="M298 384.667h148l-86 84h-62v-84zM96 842.667l832-832-56-54-118 120c-68-48-152-76-242-76-236 0-426 190-426 426 0 90 28 174 76 242l-120 118zM726 468.667h-148l-308 308c68 48 152 76 242 76 236 0 426-190 426-426 0-90-28-174-76-242l-198 200h62v84z" />
<glyph unicode="&#xe645;" glyph-name="priority_high" d="M426 810.667h172v-512h-172v512zM426 128.667c0 48 38 84 86 84s86-36 86-84-38-86-86-86-86 38-86 86z" />
<glyph unicode="&#xe6c4;" glyph-name="pie_chart" d="M556 382.667h382c-20-202-180-362-382-382v382zM556 852.667c202-20 362-180 382-382h-382v382zM470 852.667v-852c-216 22-384 204-384 426s168 404 384 426z" />
<glyph unicode="&#xe6c5;" glyph-name="pie_chart_outlined" d="M554 88.667c154 20 276 142 296 296h-296v-296zM170 426.667c0-174 132-316 300-338v676c-168-20-300-164-300-338zM554 764.667v-296h296c-20 154-142 276-296 296zM512 852.667c234 0 426-192 426-426s-192-426-426-426-426 192-426 426 192 426 426 426z" />
<glyph unicode="&#xe6dd;" glyph-name="bubble_chart" d="M444 562.667c0 114 90 206 204 206s206-92 206-206-92-204-206-204-204 90-204 204zM546 170.667c0 48 38 86 86 86s84-38 84-86-36-86-84-86-86 38-86 86zM170 324.667c0 76 62 136 138 136s136-60 136-136-60-136-136-136-138 60-138 136z" />
<glyph unicode="&#xe6df;" glyph-name="multiline_chart" d="M938 642.667l-130-146c46-74 78-164 88-262h-86c-8 70-30 136-62 194l-172-194-170 172-256-256-64 64 320 320 170-172 122 140c-72 84-172 138-288 138-100 0-192-40-264-104l-60 60c88 78 200 128 324 128 138 0 258-60 346-158l122 136z" />
<glyph unicode="&#xe6e1;" glyph-name="show_chart" d="M150 150.667l-64 64 320 320 170-172 302 340 60-60-362-408-170 172z" />
<glyph unicode="&#xe7e9;" glyph-name="cake" d="M768 554.667c70 0 128-58 128-128v-66c0-46-38-84-84-84-22 0-42 8-58 24l-92 92-92-92c-32-32-86-32-118 0l-90 92-92-92c-16-16-36-24-58-24-46 0-84 38-84 84v66c0 70 58 128 128 128h214v86h84v-86h214zM708 256.667c28-28 64-44 104-44 32 0 60 10 84 26v-196c0-24-18-42-42-42h-684c-24 0-42 18-42 42v196c24-16 52-26 84-26 40 0 76 16 104 44l46 46 46-46c56-56 152-56 208 0l46 46zM512 682.667c-46 0-86 40-86 86 0 16 6 32 14 44l72 126 72-126c8-12 14-28 14-44 0-46-38-86-86-86z" />
<glyph unicode="&#xe7ee;" glyph-name="domain" d="M768 298.667v-86h-86v86h86zM768 468.667v-84h-86v84h86zM854 128.667v426h-342v-86h86v-84h-86v-86h86v-86h-86v-84h342zM426 640.667v84h-84v-84h84zM426 468.667v86h-84v-86h84zM426 298.667v86h-84v-86h84zM426 128.667v84h-84v-84h84zM256 640.667v84h-86v-84h86zM256 468.667v86h-86v-86h86zM256 298.667v86h-86v-86h86zM256 128.667v84h-86v-84h86zM512 640.667h426v-598h-852v768h426v-170z" />
<glyph unicode="&#xe7f0;" glyph-name="group_add" d="M554 384.667c86 0 256-42 256-128v-86h-512v86c0 86 170 128 256 128zM838 376.667c86-14 186-54 186-120v-86h-128v86c0 50-22 88-58 120zM554 468.667c-70 0-128 58-128 128s58 128 128 128 128-58 128-128-58-128-128-128zM768 468.667c-14 0-26 2-38 6 24 34 38 76 38 122s-14 88-38 122c12 4 24 6 38 6 70 0 128-58 128-128s-58-128-128-128zM342 512.667v-86h-128v-128h-86v128h-128v86h128v128h86v-128h128z" />
<glyph unicode="&#xe7f1;" glyph-name="location_city" d="M810 298.667v86h-84v-86h84zM810 128.667v84h-84v-84h84zM554 640.667v84h-84v-84h84zM554 468.667v86h-84v-86h84zM554 298.667v86h-84v-86h84zM554 128.667v84h-84v-84h84zM298 468.667v86h-84v-86h84zM298 298.667v86h-84v-86h84zM298 128.667v84h-84v-84h84zM640 468.667h256v-426h-768v598h256v84l128 128 128-128v-256z" />
<glyph unicode="&#xe7f4;" glyph-name="notifications" d="M768 256.667l86-86v-42h-684v42l86 86v212c0 132 70 240 192 270v30c0 36 28 64 64 64s64-28 64-64v-30c122-30 192-140 192-270v-212zM512 0.667c-48 0-86 38-86 84h172c0-46-40-84-86-84z" />
<glyph unicode="&#xe7f5;" glyph-name="notifications_none" d="M682 212.667v256c0 106-64 192-170 192s-170-86-170-192v-256h340zM768 256.667l86-86v-42h-684v42l86 86v212c0 132 70 240 192 270v30c0 36 28 64 64 64s64-28 64-64v-30c122-30 192-140 192-270v-212zM512 0.667c-46 0-86 38-86 84h172c0-46-40-84-86-84z" />
<glyph unicode="&#xe7fa;" glyph-name="party_mode" d="M512 212.667c118 0 214 96 214 214 0 14-2 28-4 42h-90c4-14 8-28 8-42 0-70-58-128-128-128h-170c40-52 100-86 170-86zM512 640.667c-118 0-214-96-214-214 0-14 2-28 4-42h90c-4 14-8 28-8 42 0 70 58 128 128 128h170c-40 52-100 86-170 86zM854 768.667c46 0 84-40 84-86v-512c0-46-38-86-84-86h-684c-46 0-84 40-84 86v512c0 46 38 86 84 86h136l78 84h256l78-84h136z" />
<glyph unicode="&#xe7fb;" glyph-name="people" d="M682 384.667c100 0 300-50 300-150v-106h-256v106c0 64-34 112-84 148 14 2 28 2 40 2zM342 384.667c100 0 298-50 298-150v-106h-598v106c0 100 200 150 300 150zM342 468.667c-70 0-128 58-128 128s58 128 128 128 126-58 126-128-56-128-126-128zM682 468.667c-70 0-128 58-128 128s58 128 128 128 128-58 128-128-58-128-128-128z" />
<glyph unicode="&#xe7fc;" glyph-name="people_outline" d="M704 660.667c-46 0-86-38-86-84s40-86 86-86 86 40 86 86-40 84-86 84zM704 426.667c-82 0-150 68-150 150s68 148 150 148 150-66 150-148-68-150-150-150zM320 660.667c-46 0-86-38-86-84s40-86 86-86 86 40 86 86-40 84-86 84zM320 426.667c-82 0-150 68-150 150s68 148 150 148 150-66 150-148-68-150-150-150zM918 192.667v52c0 24-110 76-214 76-46 0-90-12-128-24 14-16 22-32 22-52v-52h320zM534 192.667v52c0 24-110 76-214 76s-214-52-214-76v-52h428zM704 384.667c92 0 278-48 278-140v-116h-940v116c0 92 186 140 278 140 52 0 130-16 192-44 62 28 140 44 192 44z" />
<glyph unicode="&#xe7fd;" glyph-name="person" d="M512 340.667c114 0 342-56 342-170v-86h-684v86c0 114 228 170 342 170zM512 426.667c-94 0-170 76-170 170s76 172 170 172 170-78 170-172-76-170-170-170z" />
<glyph unicode="&#xe7fe;" glyph-name="person_add" d="M640 340.667c114 0 342-56 342-170v-86h-684v86c0 114 228 170 342 170zM256 512.667h128v-86h-128v-128h-86v128h-128v86h128v128h86v-128zM640 426.667c-94 0-170 76-170 170s76 172 170 172 170-78 170-172-76-170-170-170z" />
<glyph unicode="&#xe7ff;" glyph-name="person_outline" d="M512 384.667c114 0 342-58 342-172v-128h-684v128c0 114 228 172 342 172zM512 768.667c94 0 170-78 170-172s-76-170-170-170-170 76-170 170 76 172 170 172zM512 302.667c-126 0-260-62-260-90v-46h520v46c0 28-134 90-260 90zM512 686.667c-50 0-90-40-90-90s40-88 90-88 90 38 90 88-40 90-90 90z" />
<glyph unicode="&#xe80b;" glyph-name="public" d="M764 196.667c56 60 90 142 90 230 0 142-88 266-214 316v-18c0-46-40-84-86-84h-84v-86c0-24-20-42-44-42h-84v-86h256c24 0 42-18 42-42v-128h42c38 0 70-26 82-60zM470 88.667v82c-46 0-86 40-86 86v42l-204 204c-6-24-10-50-10-76 0-174 132-318 300-338zM512 852.667c236 0 426-190 426-426s-190-426-426-426-426 190-426 426 190 426 426 426z" />
<glyph unicode="&#xe80c;" glyph-name="school" d="M512 810.667l470-256v-342h-86v296l-384-210-470 256zM214 376.667l298-164 298 164v-172l-298-162-298 162v172z" />
<glyph unicode="&#xe812;" glyph-name="sentiment_neutral" d="M512 84.667c188 0 342 154 342 342s-154 342-342 342-342-154-342-342 154-342 342-342zM512 852.667c236 0 426-190 426-426s-190-426-426-426-426 190-426 426 190 426 426 426zM298 532.667c0 36 28 64 64 64s64-28 64-64-28-64-64-64-64 28-64 64zM598 532.667c0 36 28 64 64 64s64-28 64-64-28-64-64-64-64 28-64 64zM384 340.667h256v-64h-256v64z" />
<glyph unicode="&#xe813;" glyph-name="sentiment_satisfied" d="M512 256.667c64 0 118 34 148 84h70c-34-88-118-148-218-148s-184 60-218 148h70c30-50 84-84 148-84zM512 84.667c188 0 342 154 342 342s-154 342-342 342-342-154-342-342 154-342 342-342zM512 852.667c236 0 426-190 426-426s-190-426-426-426-426 190-426 426 190 426 426 426zM298 532.667c0 36 28 64 64 64s64-28 64-64-28-64-64-64-64 28-64 64zM598 532.667c0 36 28 64 64 64s64-28 64-64-28-64-64-64-64 28-64 64z" />
<glyph unicode="&#xe815;" glyph-name="sentiment_very_satisfied" d="M512 192.667c-100 0-184 60-218 148h436c-34-88-118-148-218-148zM378 514.667l-44-46-46 46 90 90 92-90-46-46zM554 514.667l92 90 90-90-46-46-44 46-46-46zM512 84.667c188 0 342 154 342 342s-154 342-342 342-342-154-342-342 154-342 342-342zM512 852.667c236 0 426-190 426-426s-190-426-426-426-426 190-426 426 190 426 426 426z" />
<glyph unicode="&#xe834;" glyph-name="check_box" d="M426 212.667l384 384-60 62-324-324-152 152-60-60zM810 810.667c48 0 86-40 86-86v-596c0-46-38-86-86-86h-596c-48 0-86 40-86 86v596c0 46 38 86 86 86h596z" />
<glyph unicode="&#xe835;" glyph-name="check_box_outline_blank" d="M810 810.667c46 0 86-40 86-86v-596c0-46-40-86-86-86h-596c-46 0-86 40-86 86v596c0 46 40 86 86 86h596zM810 724.667h-596v-596h596v596z" />
<glyph unicode="&#xe836;" glyph-name="radio_button_unchecked" d="M512 84.667c188 0 342 154 342 342s-154 342-342 342-342-154-342-342 154-342 342-342zM512 852.667c236 0 426-190 426-426s-190-426-426-426-426 190-426 426 190 426 426 426z" />
<glyph unicode="&#xe837;" glyph-name="radio_button_checked" d="M512 84.667c188 0 342 154 342 342s-154 342-342 342-342-154-342-342 154-342 342-342zM512 852.667c236 0 426-190 426-426s-190-426-426-426-426 190-426 426 190 426 426 426zM512 640.667c118 0 214-96 214-214s-96-214-214-214-214 96-214 214 96 214 214 214z" />
<glyph unicode="&#xe838;" glyph-name="star1" d="M512 202.667l-264-160 70 300-232 202 306 26 120 282 120-282 306-26-232-202 70-300z" />
<glyph unicode="&#xe839;" glyph-name="star_half" d="M512 280.667l160-96-42 182 142 124-188 16-72 172v-398zM938 544.667l-232-202 70-300-264 160-264-160 70 300-232 202 306 26 120 282 120-282z" />
<glyph unicode="&#xe83a;" glyph-name="star_border" d="M512 280.667l160-96-42 182 142 124-188 16-72 172-72-172-188-16 142-124-42-182zM938 544.667l-232-202 70-300-264 160-264-160 70 300-232 202 306 26 120 282 120-282z" />
<glyph unicode="&#xe84e;" glyph-name="accessibility" d="M896 554.667h-256v-554h-86v256h-84v-256h-86v554h-256v86h768v-86zM512 852.667c46 0 86-38 86-84s-40-86-86-86-86 40-86 86 40 84 86 84z" />
<glyph unicode="&#xe851;" glyph-name="account_box" d="M256 212.667v-42h512v42c0 86-170 132-256 132s-256-46-256-132zM640 554.667c0 70-58 128-128 128s-128-58-128-128 58-128 128-128 128 58 128 128zM128 724.667c0 46 38 86 86 86h596c46 0 86-40 86-86v-596c0-46-40-86-86-86h-596c-48 0-86 40-86 86v596z" />
<glyph unicode="&#xe853;" glyph-name="account_circle" d="M512 118.667c106 0 200 56 256 138-2 84-172 132-256 132-86 0-254-48-256-132 56-82 150-138 256-138zM512 724.667c-70 0-128-58-128-128s58-128 128-128 128 58 128 128-58 128-128 128zM512 852.667c236 0 426-190 426-426s-190-426-426-426-426 190-426 426 190 426 426 426z" />
<glyph unicode="&#xe858;" glyph-name="alarm_on" d="M450 318.667l210 212 46-46-256-256-136 136 44 44zM512 84.667c166 0 298 134 298 300s-132 298-298 298-298-132-298-298 132-300 298-300zM512 768.667c212 0 384-172 384-384s-172-384-384-384-384 172-384 384 172 384 384 384zM336 794.667l-196-164-54 64 196 164zM938 694.667l-54-66-196 166 54 64z" />
<glyph unicode="&#xe859;" glyph-name="android" d="M640 724.667v44h-42v-44h42zM426 724.667v44h-42v-44h42zM662 846.667c64-46 106-122 106-206h-512c0 84 40 160 104 206l-56 56c-8 8-8 22 0 30s22 8 30 0l64-64c34 18 74 28 114 28s78-10 112-28l64 64c8 8 22 8 30 0s8-22 0-30zM874 596.667c36 0 64-28 64-64v-298c0-36-28-64-64-64s-64 28-64 64v298c0 36 28 64 64 64zM150 596.667c36 0 64-28 64-64v-298c0-36-28-64-64-64s-64 28-64 64v298c0 36 28 64 64 64zM256 170.667v426h512v-426c0-24-18-42-42-42h-44v-150c0-36-28-64-64-64s-64 28-64 64v150h-84v-150c0-36-28-64-64-64s-64 28-64 64v150h-44c-24 0-42 18-42 42z" />
<glyph unicode="&#xe85d;" glyph-name="assignment" d="M726 554.667v86h-428v-86h428zM726 384.667v84h-428v-84h428zM598 212.667v86h-300v-86h300zM512 810.667c-24 0-42-18-42-42s18-44 42-44 42 20 42 44-18 42-42 42zM810 810.667c46 0 86-40 86-86v-596c0-46-40-86-86-86h-596c-46 0-86 40-86 86v596c0 46 40 86 86 86h178c18 50 64 86 120 86s102-36 120-86h178z" />
<glyph unicode="&#xe862;" glyph-name="assignment_turned_in" d="M426 212.667l342 342-60 60-282-280-110 110-60-60zM512 810.667c-24 0-42-18-42-42s18-44 42-44 42 20 42 44-18 42-42 42zM810 810.667c46 0 86-40 86-86v-596c0-46-40-86-86-86h-596c-46 0-86 40-86 86v596c0 46 40 86 86 86h178c18 50 64 86 120 86s102-36 120-86h178z" />
<glyph unicode="&#xe863;" glyph-name="autorenew" d="M800 608.667c34-52 54-116 54-182 0-188-154-342-342-342v-128l-170 172 170 170v-128c142 0 256 114 256 256 0 44-12 84-30 120zM512 682.667c-142 0-256-114-256-256 0-44 10-84 30-120l-62-62c-34 52-54 116-54 182 0 188 154 342 342 342v128l170-172-170-170v128z" />
<glyph unicode="&#xe868;" glyph-name="bug_report" d="M598 426.667v86h-172v-86h172zM598 256.667v84h-172v-84h172zM854 596.667v-84h-90c2-14 4-30 4-44v-42h86v-86h-86v-42c0-14-2-28-4-42h90v-86h-120c-44-76-128-128-222-128s-178 52-222 128h-120v86h90c-2 14-4 28-4 42v42h-86v86h86v42c0 14 2 30 4 44h-90v84h120c20 34 46 62 78 84l-70 70 60 60 94-92c20 4 40 6 60 6s40-2 60-6l94 92 60-60-70-70c32-22 58-50 78-84h120z" />
<glyph unicode="&#xe86a;" glyph-name="cached" d="M256 426.667h128l-170-170-172 170h128c0 188 154 342 342 342 66 0 130-20 182-54l-62-62c-36 20-76 30-120 30-142 0-256-114-256-256zM810 596.667l172-170h-128c0-188-154-342-342-342-66 0-130 20-182 54l62 62c36-20 76-30 120-30 142 0 256 114 256 256h-128z" />
<glyph unicode="&#xe86b;" glyph-name="change_history" d="M512 768.667l426-684h-852zM512 606.667l-272-436h544z" />
<glyph unicode="&#xe86c;" glyph-name="check_circle" d="M426 212.667l384 384-60 62-324-324-152 152-60-60zM512 852.667c236 0 426-190 426-426s-190-426-426-426-426 190-426 426 190 426 426 426z" />
<glyph unicode="&#xe86f;" glyph-name="code1" d="M622 230.667l198 196-198 196 60 60 256-256-256-256zM402 230.667l-60-60-256 256 256 256 60-60-198-196z" />
<glyph unicode="&#xe872;" glyph-name="delete" d="M810 768.667v-86h-596v86h148l44 42h212l44-42h148zM256 128.667v512h512v-512c0-46-40-86-86-86h-340c-46 0-86 40-86 86z" />
<glyph unicode="&#xe875;" glyph-name="dns" d="M298 554.667c46 0 86 40 86 86s-40 84-86 84-84-38-84-84 38-86 84-86zM854 810.667c24 0 42-18 42-42v-256c0-24-18-44-42-44h-684c-24 0-42 20-42 44v256c0 24 18 42 42 42h684zM298 128.667c46 0 86 38 86 84s-40 86-86 86-84-40-84-86 38-84 84-84zM854 384.667c24 0 42-20 42-44v-256c0-24-18-42-42-42h-684c-24 0-42 18-42 42v256c0 24 18 44 42 44h684z" />
<glyph unicode="&#xe876;" glyph-name="done" d="M384 246.667l452 454 60-60-512-512-238 238 58 60z" />
<glyph unicode="&#xe877;" glyph-name="done_all" d="M18 366.667l60 60 238-238-60-60zM948 700.667l62-60-512-512-240 238 62 60 178-178zM768 640.667l-270-272-60 60 270 272z" />
<glyph unicode="&#xe879;" glyph-name="exit_to_app" d="M810 810.667c46 0 86-40 86-86v-596c0-46-40-86-86-86h-596c-48 0-86 40-86 86v170h86v-170h596v596h-596v-170h-86v170c0 46 38 86 86 86h596zM430 272.667l110 112h-412v84h412l-110 112 60 60 214-214-214-214z" />
<glyph unicode="&#xe87a;" glyph-name="explore" d="M606 332.667l162 350-350-162-162-350zM512 852.667c236 0 426-190 426-426s-190-426-426-426-426 190-426 426 190 426 426 426zM512 472.667c26 0 46-20 46-46s-20-46-46-46-46 20-46 46 20 46 46 46z" />
<glyph unicode="&#xe87d;" glyph-name="favorite" d="M512 28.667l-62 56c-220 200-364 330-364 492 0 132 102 234 234 234 74 0 146-36 192-90 46 54 118 90 192 90 132 0 234-102 234-234 0-162-144-294-364-494z" />
<glyph unicode="&#xe884;" glyph-name="get_app" d="M214 170.667h596v-86h-596v86zM810 554.667l-298-298-298 298h170v256h256v-256h170z" />
<glyph unicode="&#xe887;" glyph-name="help" d="M642 458.667c24 24 40 58 40 96 0 94-76 170-170 170s-170-76-170-170h84c0 46 40 86 86 86s86-40 86-86c0-24-10-44-26-60l-52-54c-30-32-50-74-50-120v-22h84c0 64 20 88 50 120zM554 128.667v84h-84v-84h84zM512 852.667c236 0 426-190 426-426s-190-426-426-426-426 190-426 426 190 426 426 426z" />
<glyph unicode="&#xe888;" glyph-name="highlight_off" d="M512 84.667c188 0 342 154 342 342s-154 342-342 342-342-154-342-342 154-342 342-342zM512 852.667c236 0 426-190 426-426s-190-426-426-426-426 190-426 426 190 426 426 426zM622 596.667l60-60-110-110 110-110-60-60-110 110-110-110-60 60 110 110-110 110 60 60 110-110z" />
<glyph unicode="&#xe88a;" glyph-name="home1" d="M426 84.667h-212v342h-128l426 384 426-384h-128v-342h-212v256h-172v-256z" />
<glyph unicode="&#xe88b;" glyph-name="hourglass_empty" d="M512 448.667l170 170v150h-340v-150zM682 234.667l-170 170-170-170v-150h340v150zM256 852.667h512v-256l-170-170 170-170v-256h-512v256l170 170-170 170v256z" />
<glyph unicode="&#xe88c;" glyph-name="hourglass_full" d="M256 852.667h512v-256l-170-170 170-170v-256h-512v256l170 170-170 170v256z" />
<glyph unicode="&#xe88e;" glyph-name="info1" d="M554 554.667v86h-84v-86h84zM554 212.667v256h-84v-256h84zM512 852.667c236 0 426-190 426-426s-190-426-426-426-426 190-426 426 190 426 426 426z" />
<glyph unicode="&#xe88f;" glyph-name="info_outline" d="M470 554.667v86h84v-86h-84zM512 84.667c188 0 342 154 342 342s-154 342-342 342-342-154-342-342 154-342 342-342zM512 852.667c236 0 426-190 426-426s-190-426-426-426-426 190-426 426 190 426 426 426zM470 212.667v256h84v-256h-84z" />
<glyph unicode="&#xe890;" glyph-name="input" d="M470 256.667v128h-428v84h428v128l170-170zM896 810.667c46 0 86-38 86-86v-598c0-46-40-84-86-84h-768c-46 0-86 38-86 84v172h86v-172h768v600h-768v-172h-86v170c0 46 40 86 86 86h768z" />
<glyph unicode="&#xe891;" glyph-name="invert_colors" d="M512 102.667v618l-180-180c-48-48-76-114-76-182 0-137.583 118.4-256 256-256zM754 600.667c134-134 134-348 0-482-66-66-154-100-242-100s-176 34-242 100c-134 134-134 348 0 482l242 242z" />
<glyph unicode="&#xe892;" glyph-name="label" d="M752 688.667l186-262-186-262c-16-22-42-36-70-36h-468c-46 0-86 38-86 84v428c0 46 40 84 86 84h468c28 0 54-14 70-36z" />
<glyph unicode="&#xe893;" glyph-name="label_outline" d="M682 212.667l152 214-152 214h-468v-428h468zM752 688.667l186-262-186-262c-16-22-42-36-70-36h-468c-46 0-86 38-86 84v428c0 46 40 84 86 84h468c28 0 54-14 70-36z" />
<glyph unicode="&#xe894;" glyph-name="language" d="M698 340.667h144c6 28 12 56 12 86s-6 58-12 86h-144c4-28 6-56 6-86s-2-58-6-86zM622 104.667c78 26 146 82 186 152h-126c-14-54-34-104-60-152zM612 340.667c4 28 6 56 6 86s-2 58-6 86h-200c-4-28-6-56-6-86s2-58 6-86h200zM512 86.667c36 52 64 108 82 170h-164c18-62 46-118 82-170zM342 596.667c14 54 34 104 60 152-78-26-146-82-186-152h126zM216 256.667c40-70 108-126 186-152-26 48-46 98-60 152h-126zM182 340.667h144c-4 28-6 56-6 86s2 58 6 86h-144c-6-28-12-56-12-86s6-58 12-86zM512 766.667c-36-52-64-108-82-170h164c-18 62-46 118-82 170zM808 596.667c-40 70-108 126-186 152 26-48 46-98 60-152h126zM512 852.667c236 0 426-190 426-426s-190-426-426-426-426 190-426 426 190 426 426 426z" />
<glyph unicode="&#xe896;" glyph-name="list1" d="M298 640.667h598v-86h-598v86zM298 212.667v86h598v-86h-598zM298 384.667v84h598v-84h-598zM128 554.667v86h86v-86h-86zM128 212.667v86h86v-86h-86zM128 384.667v84h86v-84h-86z" />
<glyph unicode="&#xe897;" glyph-name="lock1" d="M644 596.667v86c0 72-60 132-132 132s-132-60-132-132v-86h264zM512 212.667c46 0 86 40 86 86s-40 86-86 86-86-40-86-86 40-86 86-86zM768 596.667c46 0 86-38 86-84v-428c0-46-40-84-86-84h-512c-46 0-86 38-86 84v428c0 46 40 84 86 84h42v86c0 118 96 214 214 214s214-96 214-214v-86h42z" />
<glyph unicode="&#xe898;" glyph-name="lock_open" d="M768 84.667v428h-512v-428h512zM768 596.667c46 0 86-38 86-84v-428c0-46-40-84-86-84h-512c-46 0-86 38-86 84v428c0 46 40 84 86 84h388v86c0 72-60 132-132 132s-132-60-132-132h-82c0 118 96 214 214 214s214-96 214-214v-86h42zM512 212.667c-46 0-86 40-86 86s40 86 86 86 86-40 86-86-40-86-86-86z" />
<glyph unicode="&#xe899;" glyph-name="lock_outline" d="M768 84.667v428h-512v-428h512zM380 682.667v-86h264v86c0 72-60 132-132 132s-132-60-132-132zM768 596.667c46 0 86-38 86-84v-428c0-46-40-84-86-84h-512c-46 0-86 38-86 84v428c0 46 40 84 86 84h42v86c0 118 96 214 214 214s214-96 214-214v-86h42zM512 212.667c-46 0-86 40-86 86s40 86 86 86 86-40 86-86-40-86-86-86z" />
<glyph unicode="&#xe89e;" glyph-name="open_in_new" d="M598 810.667h298v-298h-86v152l-418-418-60 60 418 418h-152v86zM810 128.667v298h86v-298c0-46-40-86-86-86h-596c-48 0-86 40-86 86v596c0 46 38 86 86 86h298v-86h-298v-596h596z" />
<glyph unicode="&#xe8a9;" glyph-name="perm_scan_wifi" d="M470 596.667h84v86h-84v-86zM554 256.667v256h-84v-256h84zM512 810.667c216 0 378-80 512-182l-512-628-512 630c134 102 296 180 512 180z" />
<glyph unicode="&#xe8aa;" glyph-name="picture_in_picture" d="M896 126.667v600h-768v-600h768zM896 810.667c46 0 86-40 86-86v-596c0-46-40-86-86-86h-768c-46 0-86 40-86 86v596c0 46 40 86 86 86h768zM810 640.667v-256h-340v256h340z" />
</font>
</defs>
</svg>
